Remember Me
A password will be e-mailed to you.
Please enter your username or email address. You will receive a link to create a new password via email.
Cancel
PerfectHDMovies.me

Independence.Day.Resurgence.2016.BluRay.1080p.x264.Dual.Audio.[Hindi.-.English].DD.5.1.Msubs…Hon3y 4.34 GiB

Independence Day: Resurgence    

PG-13 120 min Dual AudioDual Audio Blu-Ray 1080p

5.4
IMDB: 5.4/10 73,648 votes

, , ,

1 win & 2 nominations.

USA

Report error

Independence.Day.Resurgence.2016.BluRay.1080p.x264.Dual.Audio.[Hindi.-.English].DD.5.1.Msubs...Hon3y

Independence.Day.Resurgence.2016.BluRay.1080p.x264.Dual.Audio.[Hindi.-.English].DD.5.1.Msubs…Hon3y

General
Format                      : Matroska
Format version              : Version 4 / Version 2
File size                   : 4.34 GiB
Duration                    : 1 h 59 min
Overall bit rate            : 5 188 kb/s
Movie name                  : [email protected]

Video
Format                      : AVC
Format/Info                 : Advanced Video Codec
Format profile              : [email protected]
Format settings, CABAC      : Yes
Format settings, ReFrames   : 5 frames
Codec ID                    : V_MPEG4/ISO/AVC
Duration                    : 1 h 59 min
Bit rate                    : 4 330 kb/s
Width                       : 1 920 pixels
Height                      : 800 pixels
Display aspect ratio        : 2.40:1
Frame rate mode             : Constant
Frame rate                  : 23.976 (24000/1001) FPS
Color space                 : YUV
Chroma subsampling          : 4:2:0
Bit depth                   : 8 bits
Scan type                   : Progressive
Bits/(Pixel*Frame)          : 0.118
Stream size                 : 3.62 GiB (83%)
Title                       : [email protected]

Audio 1
Format                      : AC-3
Format/Info                 : Audio Coding 3
Mode extension              : CM (complete main)
Format settings, Endianness : Big
Codec ID                    : A_AC3
Duration                    : 1 h 59 min
Bit rate mode               : Constant
Bit rate                    : 384 kb/s
Channel(s)                  : 6 channels
Channel positions           : Front: L C R, Side: L R, LFE
Sampling rate               : 48.0 kHz
Frame rate                  : 31.250 FPS (1536 spf)
Compression mode            : Lossy
Stream size                 : 329 MiB (7%)
Title                       : [email protected]
Language                    : Hindi
Default                     : Yes
Forced                      : Yes


Audio 2
Format                      : AC-3
Format/Info                 : Audio Coding 3
Mode extension              : CM (complete main)
Format settings, Endianness : Big
Codec ID                    : A_AC3
Duration                    : 1 h 59 min
Bit rate mode               : Constant
Bit rate                    : 448 kb/s
Channel(s)                  : 6 channels
Channel positions           : Front: L C R, Side: L R, LFE
Sampling rate               : 48.0 kHz
Frame rate                  : 31.250 FPS (1536 spf)
Compression mode            : Lossy
Stream size                 : 384 MiB (9%)
Title                       : [email protected]
Language                    : English
Default                     : No

Subtitle Text 1
Format                      : PGS
Muxing mode                 : zlib
Codec ID                    : S_HDMV/PGS
Codec ID/Info               : Picture based subtitle format used on BDs/HD-DVDs
Duration                    : 1 h 49 min
Bit rate                    : 16.0 kb/s
Count of elements           : 4316
Stream size                 : 12.6 MiB (0%)
Title                       : [email protected]
Language                    : English
Default                     : No

Subtitle Text 2
Format                      : PGS
Muxing mode                 : zlib
Codec ID                    : S_HDMV/PGS
Codec ID/Info               : Picture based subtitle format used on BDs/HD-DVDs
Duration                    : 1 h 58 min
Bit rate                    : 9 578 b/s
Count of elements           : 3452
Stream size                 : 8.14 MiB (0%)
Title                       : [email protected]
Language                    : Arabic
Default                     : No

ss
Independence.Day.Resurgence.2016.BluRay.1080p.x264.Dual.Audio.[Hindi.-.English].DD.5.1.Msubs...Hon3y  Independence.Day.Resurgence.2016.BluRay.1080p.x264.Dual.Audio.[Hindi.-.English].DD.5.1.Msubs...Hon3y  Independence.Day.Resurgence.2016.BluRay.1080p.x264.Dual.Audio.[Hindi.-.English].DD.5.1.Msubs...Hon3y  Independence.Day.Resurgence.2016.BluRay.1080p.x264.Dual.Audio.[Hindi.-.English].DD.5.1.Msubs...Hon3y                

wo

VODLOCKER
*
WATCHVIDEO
*
FLASHSX
*
LETWATCH
dl
*
*
*
INDISHARE
*
BDUPLOD
*
*
*
No links available
No downloads available

Genres

Related movies

Watch Dragon ball super