Remember Me
A password will be e-mailed to you.
Please enter your username or email address. You will receive a link to create a new password via email.
Cancel
PerfectHDMovies.me

I Am Wrath 2016 HDRIP x264 TOPKEK

I Am Wrath    

R 92 min HollywoodHollywood HDRip

N/A
IMDB: N/A/10 N/A votes

, , ,

N/A

USA

Report error

Click To Resize

Format                                   : MPEG-4
Format profile                           : Base Media
Codec ID                                 : isom
File size                                : 621 MiB
Duration                                 : 1h 30mn
Overall bit rate mode                    : Variable
Overall bit rate                         : 955 Kbps
Encoded date                             : UTC 2016-04-15 06:54:57
Tagged date                              : UTC 2016-04-15 06:54:57

Video
ID                                       : 1
Format                                   : AVC
Format/Info                              : Advanced Video Codec
Format profile                           : [email protected]
Format settings, CABAC                   : Yes
Format settings, ReFrames                : 5 frames
Codec ID                                 : avc1
Codec ID/Info                            : Advanced Video Coding
Duration                                 : 1h 30mn
Bit rate                                 : 806 Kbps
Maximum bit rate                         : 8 193 Kbps
Width                                    : 848 pixels
Height                                   : 352 pixels
Display aspect ratio                     : 2.40:1
Frame rate mode                          : Constant
Frame rate                               : 23.976 fps
Color space                              : YUV
Chroma subsampling                       : 4:2:0
Bit depth                                : 8 bits
Scan type                                : Progressive
Bits/(Pixel*Frame)                       : 0.113
Stream size                              : 523 MiB (84%)
Writing library                          : x264 core 148 r2638 7599210

Encoded date                             : UTC 2016-04-15 06:46:53
Tagged date                              : UTC 2016-04-15 06:55:00

Audio
ID                                       : 2
Format                                   : AAC
Format/Info                              : Advanced Audio Codec
Format profile                           : LC
Codec ID                                 : 40
Duration                                 : 1h 30mn
Bit rate mode                            : Variable
Bit rate                                 : 144 Kbps
Maximum bit rate                         : 198 Kbps
Channel(s)                               : 2 channels
Channel positions                        : Front: L R
Sampling rate                            : 48.0 KHz
Compression mode                         : Lossy
Stream size                              : 94.6 MiB (15%)
Language                                 : English
Encoded date                             : UTC 2016-04-15 06:48:32
Tagged date                              : UTC 2016-04-15 06:55:00
Click To Resize
Click To Resize
Click To Resize
LETWATACH
*
VODLOCKER
*
*
*
*
*
 

 

No links available
No downloads available

Genres

Related movies

Watch Dragon ball super