Remember Me
A password will be e-mailed to you.
Please enter your username or email address. You will receive a link to create a new password via email.
Cancel
PerfectHDMovies.me

I (2015) 720p UNCUT HDRip x264 [Dual Audio] [Hindi DD 2 0 Tamil 2 0

i    

N/A 170 min South Dubbed Blu-Ray 720p

7.7
IMDB: 7.7/10 11,351 votes

, , ,

N/A

India

Report error

I (2015) 720p UNCUT HDRip x264 [Dual Audio] [Hindi DD 2 0 Tamil 2 0 @PerfectHDmovies

I (2015) 720p UNCUT HDRip x264 [Dual Audio] [Hindi DD 2.0 – Tamil 2.0

Format : Matroska
Format version : Version 4 / Version 2
File size : 1.48 GiB
Duration : 3h 8mn
Overall bit rate : 1 122 Kbps
Movie name : RSY-Encoder
Encoded date : UTC 2015-09-29 13:30:57
Video
ID : 1
Format : AVC
Format/Info : Advanced Video Codec
Format profile : [email protected]
Format settings, CABAC : Yes
Format settings, ReFrames : 4 frames
Codec ID : V_MPEG4/ISO/AVC
Duration : 3h 8mn
Bit rate : 832 Kbps
Width : 1 280 pixels
Height : 544 pixels
Display aspect ratio : 2.35:1
Frame rate mode : Constant
Frame rate : 23.976 fps
Color space : YUV
Chroma subsampling : 4:2:0
Bit depth : 8 bits
Scan type : Progressive
Bits/(Pixel*Frame) : 0.050
Stream size : 1.07 GiB (72%)
Title : RSY-Encoder
Audio #1
ID : 2
Format : AC-3
Format/Info : Audio Coding 3
Format profile : Dolby Digital
Mode extension : CM (complete main)
Format settings, Endianness : Big
Codec ID : A_AC3
Duration : 3h 8mn
Bit rate mode : Constant
Bit rate : 192 Kbps
Channel(s) : 2 channels
Channel positions : Front: L R
Sampling rate : 48.0 KHz
Bit depth : 16 bits
Compression mode : Lossy
Stream size : 259 MiB (17%)
Title : RSY-Encoder
Language : Hindi
Default : Yes
Forced : No
Audio #2
ID : 3
Format : AC-3
Format/Info : Audio Coding 3
Mode extension : CM (complete main)
Format settings, Endianness : Big
Codec ID : A_AC3
Duration : 3h 8mn
Bit rate mode : Constant
Bit rate : 96.0 Kbps
Channel(s) : 2 channels
Channel positions : Front: L R
Sampling rate : 48.0 KHz
Bit depth : 16 bits
Compression mode : Lossy
Stream size : 129 MiB (9%)
Title : RSY-Encoder
Language : Tamil
Default : No
Forced : No

*
USERSFILES
*
*
*
*
GO4UP 
 

 

No links available
No downloads available

Genres

Related movies

Watch Dragon ball super