Remember Me
A password will be e-mailed to you.
Please enter your username or email address. You will receive a link to create a new password via email.
Cancel
PerfectHDMovies.me

Hudson Hawk [1991] 1080p BDRip x264 Hindi DD2.0..Ch.-.Hon3y 3.5 Gb

Hudson Hawk    

R 100 min Dual AudioDual Audio Blu-Ray 1080p

5.7
IMDB: 5.7/10 42,842 votes

, , ,

3 wins & 5 nominations.

USA

Report error

Hudson Hawk [1991] 1080p BDRip x264 Hindi DD2.0..Ch.-.Hon3y

Hudson Hawk [1991] 1080p BDRip x264 Hindi DD2.0..Ch.-.Hon3y

General
Complete name                            : Hudson Hawk [1991] 1080p BDRip x264 Hindi DD2.0  Ch – Hon3y.mkv
Format                                   : Matroska
Format version                           : Version 4 / Version 2
File size                                : 3.50 GiB
Duration                                 : 1h 39mn
Overall bit rate                         : 5 011 Kbps

Video
ID                                       : 1
Format                                   : AVC
Format/Info                              : Advanced Video Codec
Format profile                           : [email protected]
Format settings, CABAC                   : Yes
Format settings, ReFrames                : 4 frames
Codec ID                                 : V_MPEG4/ISO/AVC
Duration                                 : 1h 39mn
Bit rate                                 : 4 820 Kbps
Width                                    : 1 920 pixels
Height                                   : 1 040 pixels
Display aspect ratio                     : 1.85:1
Frame rate mode                          : Constant
Frame rate                               : 23.976 fps
Color space                              : YUV
Chroma subsampling                       : 4:2:0
Bit depth                                : 8 bits
Scan type                                : Progressive
Bits/(Pixel*Frame)                       : 0.101
Stream size                              : 3.29 GiB (94%)
Title                                    : JmD007 | @Hon3yhd.com

Audio
ID                                       : 2
Format                                   : AC-3
Format/Info                              : Audio Coding 3
Format profile                           : Dolby Digital
Mode extension                           : CM (complete main)
Format settings, Endianness              : Big
Codec ID                                 : A_AC3
Duration                                 : 1h 39mn
Bit rate mode                            : Constant
Bit rate                                 : 192 Kbps
Channel(s)                               : 2 channels
Channel positions                        : Front: L R
Sampling rate                            : 48.0 KHz
Bit depth                                : 16 bits
Compression mode                         : Lossy
Stream size                              : 137 MiB (4%)
Title                                    : JmD007 | @Hon3yhd.com
Language                                 : Hindi
Default                                  : Yes
Forced                                   : No

LETWATACH
*
*
*
USERFILES
*
*
*
*
GO4UP 
No links available
No downloads available

Genres

Related movies

Watch Dragon ball super