Remember Me
A password will be e-mailed to you.
Please enter your username or email address. You will receive a link to create a new password via email.
Cancel
PerfectHDMovies.me

House Of Purgatory 2016 720p WEB-DL x264 AC3 700MB

HollywoodHollywood Pre-Releases (Latest)Hollywood WEB-DL 720p

IMDB: /10 votes

Report error

House Of Purgatory 2016 720p WEB-DL x264 AC3 700MB

House Of Purgatory 2016 720p WEB-DL x264 AC3 700MB

Four teenagers go looking for a legendary haunted house that gives you money back for every floor you can complete. Once finding it, they realize the house is much more terrifying than a normal Halloween attraction - the house knows each of their secrets and one by one uses them against the teens.

http://www.imdb.com/title/tt1773467/

Cast

Torey Michael Adkins ... Ryan Sr. (As Torey Adkins)
Laura Coover ... Amber
Marika Engelhardt ... Veronica
Brad Fry ... Ryan
Video
ID                                       : 1
Format                                   : AVC
Format/Info                              : Advanced Video Codec
Format profile                           : [email protected]
Format settings, CABAC                   : Yes
Format settings, ReFrames                : 8 frames
Codec ID                                 : avc1
Codec ID/Info                            : Advanced Video Coding
Duration                                 : 1 h 15 min
Bit rate                                 : 1 100 kb/s
Width                                    : 1 280 pixels
Height                                   : 718 pixels
Display aspect ratio                     : 16:9
Original display aspect ratio            : 16:9
Frame rate mode                          : Variable
Frame rate                               : 23.976 FPS
Minimum frame rate                       : 11.989 FPS
Maximum frame rate                       : 24.617 FPS
Color space                              : YUV
Chroma subsampling                       : 4:2:0
Bit depth                                : 8 bits
Scan type                                : Progressive
Bits/(Pixel*Frame)                       : 0.050
Stream size                              : 593 MiB (89%)
Writing library                          : x264 core 142 r2479 dd79a61
Encoding settings                        : cabac=1 / ref=8 / deblock=1:-1:-1 / analyse=0x3:0x133 / me=umh / subme=9 / psy=1 / psy_rd=1.00:0.15 / mixed_ref=1 / me_range=16 / chroma_me=1 / trellis=2 / 8x8dct=1 / cqm=0 / deadzone=21,11 / fast_pskip=1 / chroma_qp_offset=-3 / threads=12 / lookahead_threads=1 / sliced_threads=0 / nr=0 / decimate=1 / interlaced=0 / bluray_compat=0 / constrained_intra=0 / bframes=3 / b_pyramid=2 / b_adapt=2 / b_bias=0 / direct=3 / weightb=1 / open_gop=0 / weightp=2 / keyint=240 / keyint_min=24 / scenecut=40 / intra_refresh=0 / rc_lookahead=60 / rc=2pass / mbtree=1 / bitrate=1100 / ratetol=1.0 / qcomp=0.60 / qpmin=0 / qpmax=69 / qpstep=4 / cplxblur=20.0 / qblur=0.5 / vbv_maxrate=62500 / vbv_bufsize=78125 / nal_hrd=none / filler=0 / ip_ratio=1.40 / aq=1:1.00
Encoded date                             : UTC 2016-10-25 23:15:13
Tagged date                              : UTC 2016-10-25 23:15:13
Color range                              : Limited
Color primaries                          : BT.709
Transfer characteristics                 : BT.709
Matrix coefficients                      : BT.709
Menus                                    : 3

Audio
ID                                       : 2
Format                                   : AC-3
Format/Info                              : Audio Coding 3
Mode extension                           : CM (complete main)
Format settings, Endianness              : Big
Codec ID                                 : ac-3
Duration                                 : 1 h 15 min
Bit rate mode                            : Constant
Bit rate                                 : 128 kb/s
Channel(s)                               : 2 channels
Channel positions                        : Front: L R
Sampling rate                            : 48.0 kHz
Frame rate                               : 31.250 FPS (1536 spf)
Bit depth                                : 16 bits
Compression mode                         : Lossy
Stream size                              : 69.0 MiB (10%)
Title                                    : Stereo / Stereo
Language                                 : English
Default                                  : Yes
Alternate group                          : 1
Encoded date                             : UTC 2016-10-25 23:15:13
Tagged date                              : UTC 2016-10-25 23:15:13
Menus                                    : 3

Menu
ID                                       : 3
Codec ID                                 : text
Duration                                 : 1 h 15 min
Language                                 : English
Encoded date                             : UTC 2016-10-25 23:15:13
Tagged date                              : UTC 2016-10-25 23:15:13
Bit rate mode                            : CBR
Menu For                                 : 1,2
00:00:00.000                             : Chapter 1
00:09:30.237                             : Chapter 2
00:18:24.813                             : Chapter 3
00:27:59.847                             : Chapter 4
00:37:09.730                             : Chapter 5
00:48:07.387                             : Chapter 6
01:00:49.066                             : Chapter 7
01:09:53.569                             : Chapter 8

ss

House Of Purgatory 2016 720p WEB-DL x264 AC3 700MB

House Of Purgatory 2016 720p WEB-DL x264 AC3 700MB

No links available
No downloads available

Genres

Related movies

Watch Dragon ball super