Remember Me
A password will be e-mailed to you.
Please enter your username or email address. You will receive a link to create a new password via email.
Cancel
PerfectHDMovies.me

Heroes (2006) Season 01 Episode 20 S01E20 720p x264 BluRay [Dual Audio] [Hindi Org DD 2.0 – Eng] – monu987 520 MiB

Dual AudioDual Audio Blu-Ray 720pEnglish ShowsHindi ShowsTV Shows

IMDB: /10 votes

Report error

Heroes (2006) Season 01 Episode 20 S01E20 720p x264 BluRay [Dual Audio] [Hindi Org DD 2.0 - Eng] - monu987

Heroes (2006) Season 01 Episode 20 S01E20 720p x264 BluRay [Dual Audio] [Hindi Org DD 2.0 – Eng] – monu987

Heroes (2006) Season 01 Episode 20 S01E20 720p x264 BluRay [Dual Audio] [Hindi Org DD 2.0 - Eng] - monu987
Format : Matroska
Format version : Version 4 / Version 2
File size : 520 MiB
Duration : 43mn 15s
Overall bit rate : 1 681 Kbps
Movie name : Heroes (2006) Season 01 Episode 20 S01E20 720p - monu987
Encoded date : UTC 2016-09-08 19:11:14
Writing application : mkvmerge v7.9.0 ('Birds') 64bit
Writing library : libebml v1.3.1 + libmatroska v1.4.2
DURATION : 00:43:15.552000000
NUMBER_OF_FRAMES : 81111
NUMBER_OF_BYTES : 62293248
_STATISTICS_WRITING_APP : mkvmerge v7.9.0 ('Birds') 64bit
_STATISTICS_WRITING_DATE_UTC : 2016-09-08 19:11:14
_STATISTICS_TAGS : BPS DURATION NUMBER_OF_FRAMES NUMBER_OF_BYTES

Video
ID : 1
Format : AVC
Format/Info : Advanced Video Codec
Format profile : [email protected]
Format settings, CABAC : Yes
Format settings, ReFrames : 3 frames
Codec ID : V_MPEG4/ISO/AVC
Duration : 43mn 15s
Bit rate : 1 250 Kbps
Width : 1 280 pixels
Height : 712 pixels
Display aspect ratio : 16:9
Frame rate mode : Constant
Frame rate : 23.976 fps
Color space : YUV
Chroma subsampling : 4:2:0
Bit depth : 8 bits
Scan type : Progressive
Bits/(Pixel*Frame) : 0.057
Stream size : 381 MiB (73%)
Title : monu987
Writing library : x264 core 142 r2431 ac76440
Default : Yes
Forced : Yes
Color range : Limited
Color primaries : Generic film
Transfer characteristics : BT.709
Matrix coefficients : BT.709
DURATION : 00:43:15.593000000
NUMBER_OF_FRAMES : 62232
NUMBER_OF_BYTES : 405721282
_STATISTICS_WRITING_APP : mkvmerge v7.9.0 ('Birds') 64bit
_STATISTICS_WRITING_DATE_UTC : 2016-09-08 19:11:14
_STATISTICS_TAGS : BPS DURATION NUMBER_OF_FRAMES NUMBER_OF_BYTES

Audio #1
ID : 2
Format : AC-3
Format/Info : Audio Coding 3
Mode extension : CM (complete main)
Format settings, Endianness : Big
Codec ID : A_AC3
Duration : 43mn 15s
Bit rate mode : Constant
Bit rate : 224 Kbps
Channel(s) : 2 channels
Channel positions : Front: L R
Sampling rate : 48.0 KHz
Compression mode : Lossy
Stream size : 69.3 MiB (13%)
Title : monu987
Language : Hindi
Default : Yes
Forced : Yes

Audio #2
ID : 3
Format : AC-3
Format/Info : Audio Coding 3
Mode extension : CM (complete main)
Format settings, Endianness : Big
Codec ID : A_AC3
Duration : 43mn 15s
Bit rate mode : Constant
Bit rate : 192 Kbps
Channel(s) : 6 channels
Channel positions : Front: L C R, Side: L R, LFE
Sampling rate : 48.0 KHz
Compression mode : Lossy
Stream size : 59.4 MiB (11%)
Title : monu987
Language : English
Default : No
Forced : No
_STATISTICS_WRITING_APP : mkvmerge v7.9.0 ('Birds') 64bit
_STATISTICS_WRITING_DATE_UTC : 2016-09-08 19:11:14
_STATISTICS_TAGS : BPS DURATION NUMBER_OF_FRAMES NUMBER_OF_BYTES
DURATION : 00:41:30.363000000
NUMBER_OF_FRAMES : 1254
NUMBER_OF_BYTES : 4137347

 
Heroes (2006) Season 01 Episode 20 S01E20 720p x264 BluRay [Dual Audio] [Hindi Org DD 2.0 - Eng] - monu987 Heroes (2006) Season 01 Episode 20 S01E20 720p x264 BluRay [Dual Audio] [Hindi Org DD 2.0 - Eng] - monu987Heroes (2006) Season 01 Episode 20 S01E20 720p x264 BluRay [Dual Audio] [Hindi Org DD 2.0 - Eng] - monu987
LETWATACH
*
*
*
*
*
*
*
GO4UP 

No links available
No downloads available

Genres

Related movies

Watch Dragon ball super