Remember Me
A password will be e-mailed to you.
Please enter your username or email address. You will receive a link to create a new password via email.
Cancel
PerfectHDMovies.me

Heroes (2006) Season 01 Episode 02 S01E02 1080p x264 BluRay [Dual Audio] [Hindi Org DD 2.0 – Eng] – monu987 – 927 MB

Heroes    

TV-14 45 min Dual AudioDual Audio Blu-Ray 1080pEnglish ShowsHindi ShowsTV Shows

7.7
IMDB: 7.7/10 202,004 votes

, , ,

Nominated for 2 Golden Globes. Another 28 wins & 95 nominations.

USA

Report error

Heroes (2006) Season 01 Episode 02 S01E02 1080p x264 BluRay [Dual Audio] [Hindi Org DD 2.0 – Eng] – monu987

Heroes (2006) Season 01 Episode 02 S01E02 1080p x264 BluRay [Dual Audio] [Hindi Org DD 2.0 - Eng] - monu987
Format : Matroska
Format version : Version 4 / Version 2
File size : 899 MiB
Duration : 42mn 54s
Overall bit rate : 2 930 Kbps
Movie name : Heroes (2006) Season 01 Episode 02 S01E02 1080p - monu987
Encoded date : UTC 2016-08-23 10:24:31
Writing application : mkvmerge v7.9.0 ('Birds') 64bit
Writing library : libebml v1.3.1 + libmatroska v1.4.2
DURATION : 00:42:54.592000000
NUMBER_OF_FRAMES : 80456
NUMBER_OF_BYTES : 61790208
_STATISTICS_WRITING_APP : mkvmerge v7.9.0 ('Birds') 64bit
_STATISTICS_WRITING_DATE_UTC : 2016-08-23 10:24:31
_STATISTICS_TAGS : BPS DURATION NUMBER_OF_FRAMES NUMBER_OF_BYTES

Video
ID : 1
Format : AVC
Format/Info : Advanced Video Codec
Format profile : [email protected]
Format settings, CABAC : Yes
Format settings, ReFrames : 4 frames
Codec ID : V_MPEG4/ISO/AVC
Duration : 42mn 54s
Bit rate : 2 500 Kbps
Width : 1 920 pixels
Height : 1 072 pixels
Display aspect ratio : 16:9
Frame rate mode : Constant
Frame rate : 23.976 fps
Color space : YUV
Chroma subsampling : 4:2:0
Bit depth : 8 bits
Scan type : Progressive
Bits/(Pixel*Frame) : 0.051
Stream size : 754 MiB (84%)
Title : monu987
Writing library : x264 core 142 r2431 ac76440
Default : Yes
Forced : Yes
Color range : Limited
Color primaries : Generic film
Transfer characteristics : BT.709
Matrix coefficients : BT.709
DURATION : 00:42:54.572000000
NUMBER_OF_FRAMES : 61728
NUMBER_OF_BYTES : 804332077
_STATISTICS_WRITING_APP : mkvmerge v7.9.0 ('Birds') 64bit
_STATISTICS_WRITING_DATE_UTC : 2016-08-23 10:24:31
_STATISTICS_TAGS : BPS DURATION NUMBER_OF_FRAMES NUMBER_OF_BYTES

Audio #1
ID : 2
Format : AC-3
Format/Info : Audio Coding 3
Mode extension : CM (complete main)
Format settings, Endianness : Big
Codec ID : A_AC3
Duration : 42mn 54s
Bit rate mode : Constant
Bit rate : 224 Kbps
Channel(s) : 2 channels
Channel positions : Front: L R
Sampling rate : 44.1 KHz
Compression mode : Lossy
Stream size : 68.7 MiB (8%)
Title : monu987
Language : Hindi
Default : Yes
Forced : Yes

Audio #2
ID : 3
Format : AC-3
Format/Info : Audio Coding 3
Mode extension : CM (complete main)
Format settings, Endianness : Big
Codec ID : A_AC3
Duration : 42mn 54s
Bit rate mode : Constant
Bit rate : 192 Kbps
Channel(s) : 6 channels
Channel positions : Front: L C R, Side: L R, LFE
Sampling rate : 48.0 KHz
Compression mode : Lossy
Stream size : 58.9 MiB (7%)
Title : monu987
Language : English
Default : No
Forced : No
DURATION : 00:42:11.967000000
NUMBER_OF_FRAMES : 1138
NUMBER_OF_BYTES : 3963791
_STATISTICS_WRITING_APP : mkvmerge v7.9.0 ('Birds') 64bit
_STATISTICS_WRITING_DATE_UTC : 2016-08-23 10:24:31
_STATISTICS_TAGS : BPS DURATION NUMBER_OF_FRAMES NUMBER_OF_BYTES

Text
ID : 4
Format : PGS
Muxing mode : zlib
Codec ID : S_HDMV/PGS
Codec ID/Info : Picture based subtitle format used on BDs/HD-DVDs
Title : monu987
Language : English
Default : Yes
Forced : Yes

Menu
00:00:00.000 : :Chapter 1
00:08:39.619 : :Chapter 2
00:20:30.329 : :Chapter 3
00:34:01.110 : :Chapter 4
No links available
No downloads available

Genres

Related movies

Watch Dragon ball super