Remember Me
A password will be e-mailed to you.
Please enter your username or email address. You will receive a link to create a new password via email.
Cancel
PerfectHDMovies.me

Hero {2015} DVDRip XviD AC3 5 1 MSubs {Team DUS} – jnmjy 2.2 GB

Hero    

N/A 145 min BollywoodBollywood DVDRip 720p

3.6
IMDB: 3.6/10 1,313 votes

, , ,

N/A

India

Report error


RIP INFO:

Year.............: 2015
Source: DDR
Ripper...........: jnmjy
General
Format                                   : AVI
Format/Info                              : Audio Video Interleave
Format profile                           : OpenDML
Format settings                          : rec
File size                                : 2.19 GiB
Duration                                 : 2h 3mn
Overall bit rate                         : 2 535 Kbps
Writing application      : AVI-Mux GUI 1.17.8.3, Feb 16 201019:42:50Video
ID                                       : 0
Format                                   : MPEG-4 Visual
Format profile                           : Advanced [email protected]
Format settings, BVOP                    : 2
Format settings, QPel                    : No
Format settings, GMC                     : No warppoints
Format settings, Matrix                  : Default (H.263)
Codec ID                                 : XVID
Codec ID/Hint                            : XviD
Duration                                 : 2h 3mn
Bit rate                                 : 2 082 Kbps
Width                                    : 720 pixels
Height                                   : 304 pixels
Display aspect ratio                     : 2.35:1
Frame rate                               : 23.976 fps
Color space                              : YUV
Chroma subsampling                       : 4:2:0
Bit depth                                : 8 bits
Scan type                                : Progressive
Compression mode                         : Lossy
Bits/(Pixel*Frame)                       : 0.397
Stream size                              : 1.80 GiB (82%)
Writing library                          : XviD 1.2.1 (UTC 2008-12-04)

Audio
ID                                       : 1
Format                                   : AC-3
Format/Info                              : Audio Coding 3
Mode extension                           : CM (complete main)
Format settings, Endianness              : Big
Codec ID                                 : 2000
Duration                                 : 2h 3mn
Bit rate mode                            : Constant
Bit rate                                 : 448 Kbps
Channel(s)                               : 6 channels
Channel positions                        : Front: L C R, Side: L R, LFE
Sampling rate                            : 48.0 KHz
Compression mode                         : Lossy
Stream size                              : 396 MiB (18%)
Alignment                                : Aligned on interleaves
Interleave, duration                     : 64 ms (1.53 video frames)
Interleave, preload duration             : 192 ms
Title    : VTS_02_1 T80 3_2ch 448Kbps DELAY 0ms

SCREENSHOTS:

Click To Resize
Click To ResizeClick To Resize Click To Resize
Click To Resize
Click To Resize
Click To Resize
Click To Resize
Click To Resize
Click To Resize
Click To Resize
Click To Resize
Click To Resize
Click To Resize
*
*
*
 
No links available
No downloads available

Genres

Related movies

Watch Dragon ball super