Hercules (2014) EXTENDED CUT 720p Blu-Ray [Dual-Audio][English BD 5.1 + Hindi BD 5.1] – Mafiaking – Team TellyTNT

Hercules (2014) EXTENDED CUT 720p Blu-Ray [Dual-Audio][English BD 5.1 + Hindi BD 5.1] – Mafiaking – Team TellyTNT

Hercules (2014) EXTENDED CUT 720p Blu-Ray [Dual-Audio][English BD 5.1 + Hindi BD 5.1] - Mafiaking - Team TellyTNT

Hercules (2014) EXTENDED CUT 720p Blu-Ray [Dual-Audio][English BD 5.1 + Hindi BD 5.1] – Mafiaking – Team TellyTNT

http://www.imdb.com/title/tt1267297/
Ratings: 6.2/10
GENRE: Action | Adventure

General
Format : Matroska
Format version : Version 4 / Version 2
File size : 1.01 GiB
Duration : 1h 41mn
Overall bit rate : 1 417 Kbps

Video
ID : 1
Format : AVC
Format/Info : Advanced Video Codec
Format profile : [email protected]
Format settings, CABAC : Yes
Format settings, ReFrames : 4 frames
Codec ID : V_MPEG4/ISO/AVC
Duration : 1h 41mn
Bit rate : 1 000 Kbps
Width : 1 280 pixels
Height : 536 pixels
Display aspect ratio : 2.40:1
Frame rate mode : Constant
Frame rate : 23.976 fps
Color space : YUV
Chroma subsampling : 4:2:0
Bit depth : 8 bits
Scan type : Progressive
Bits/(Pixel*Frame) : 0.061
Stream size : 707 MiB (69%)
Title : Mafiaking
Language : English
Default : Yes
Forced : No


Audio #1
ID : 2
Format : AC-3
Format/Info : Audio Coding 3
Mode extension : CM (complete main)
Format settings, Endianness : Big
Codec ID : A_AC3
Duration : 1h 41mn
Bit rate mode : Constant
Bit rate : 224 Kbps
Channel(s) : 6 channels
Channel positions : Front: L C R, Side: L R, LFE
Sampling rate : 48.0 KHz
Bit depth : 16 bits
Compression mode : Lossy
Stream size : 163 MiB (16%)
Title : Mafiaking
Language : Hindi
Default : Yes
Forced : No


Audio #2
ID : 3
Format : AC-3
Format/Info : Audio Coding 3
Mode extension : CM (complete main)
Format settings, Endianness : Big
Codec ID : A_AC3
Duration : 1h 41mn
Bit rate mode : Constant
Bit rate : 192 Kbps
Channel(s) : 6 channels
Channel positions : Front: L C R, Side: L R, LFE
Sampling rate : 48.0 KHz
Bit depth : 16 bits
Compression mode : Lossy
Stream size : 140 MiB (14%)
Title : Mafiaking
Language : English
Default : No
Forced : No

Nov 14, 2015 - Posted by -

Comments are closed.