Remember Me
A password will be e-mailed to you.
Please enter your username or email address. You will receive a link to create a new password via email.
Cancel
PerfectHDMovies.me

Hate Story 3 (2015) – Untouched DesiSCR PAL 2CH – [ M2Tv EXcluSivE ]

Hate Story 3    

N/A N/A BollywoodBollywood Pre-Releases (Latest)

N/A
IMDB: N/A/10 N/A votes

, , ,

N/A

India

Report error

Hate Story 3 (2015) - Untouched DesiSCR PAL 2CH - [ M2Tv EXcluSivE ] @PerfectHDMovies

 

Hate Story 3 (2015) – Untouched DesiSCR PAL 2CH – [ M2Tv EXcluSivE]

[* Year ].............: [ (2015)
[* IMDB Link ]........: [ http://www.imdb.com/title/tt4865436/
[* Gener ]............: [ Thriller 
[* Cast ].............: [ Sharman Joshi | Zarine Khan | Karan Singh Grover

[* Source ]...........: [ -* M2Tv (Thanks Sparda) *-
[* Ripper ]...........: [ -* TuHiN *-
[* Language ].........: [ Hindi

Format                      : MPEG-PS
File size                   : 1.43 GiB
Duration                    : 2h 6mn
Overall bit rate mode       : Variable
Overall bit rate            : 1 624 Kbps



[ * Video ]

Format                      : MPEG Video
Format version              : Version 2
Format profile              : [email protected]
Format settings, BVOP       : Yes
Format settings, Matrix     : Custom
Format settings, GOP        : Variable
Duration                    : 2h 6mn
Bit rate mode               : Variable
Bit rate                    : 1 464 Kbps
Maximum bit rate            : 8 000 Kbps
Width                       : 704 pixels
Height                      : 576 pixels
Display aspect ratio        : 1.738
Frame rate                  : 25.000 fps
Standard                    : PAL
Color space                 : YUV
Chroma subsampling          : 4:2:0
Bit depth                   : 8 bits
Scan type                   : Progressive
Compression mode            : Lossy
Bits/(Pixel*Frame)          : 0.144
Time code of first frame    : 00:00:00:00
Time code source            : Group of pictures header
Stream size                 : 1.29 GiB (90%)
Color primaries             : BT.601 PAL
Transfer characteristics    : BT.470 System B, BT.470 System G
Matrix coefficients         : BT.601


[ * Audio ]

Format                      : MPEG Audio
Format version              : Version 1
Format profile              : Layer 2
Duration                    : 2h 6mn
Bit rate mode               : Constant
Bit rate                    : 128 Kbps
Channel(s)                  : 2 channels
Sampling rate               : 48.0 KHz
Compression mode            : Lossy
Stream size                 : 116 MiB (8%)











 


 

 

  LETWATACH

  *

VODLOCKER

 

 

USERSCLOUD

  *

  USERSFILES

  *

  UPTOBOX

  *

  MULTIUP

  *

  JHEBERG

  *

  GO4UP

 

 

 

No links available
No downloads available

Genres

Related movies

Watch Dragon ball super