Remember Me
A password will be e-mailed to you.
Please enter your username or email address. You will receive a link to create a new password via email.
Cancel
PerfectHDMovies.me

Hate Story 3 (2015) – 720p – WebHD-Rip – Hindi – x264 – AC3 – Mafiaking – M2Tv ~ 962 MB

Hate Story 3    

N/A 126 min BollywoodBollywood HDRip 720p

4.4
IMDB: 4.4/10 1,289 votes

, , ,

N/A

India

Report error

Hate Story 3 (2015) – 720p – WebHD-Rip – Hindi – x264 – AC3 – Mafiaking – M2Tv
 


Video
ID : 1
Format : AVC
Format/Info : Advanced Video Codec
Format profile : [email protected]
Format settings, CABAC : Yes
Format settings, ReFrames : 4 frames
Codec ID : V_MPEG4/ISO/AVC
Duration : 2h 3mn
Bit rate : 950 Kbps
Width : 1 280 pixels
Height : 612 pixels
Display aspect ratio : 2.092
Frame rate mode : Constant
Frame rate : 23.976 fps
Color space : YUV
Chroma subsampling : 4:2:0
Bit depth : 8 bits
Scan type : Progressive
Bits/(Pixel*Frame) : 0.051
Stream size : 822 MiB (86%)
Title : Mafiaking
Language : Hindi
Default : Yes
Forced : No


Audio
ID : 2
Format : AC-3
Format/Info : Audio Coding 3
Mode extension : CM (complete main)
Format settings, Endianness : Big
Codec ID : A_AC3
Duration : 2h 3mn
Bit rate mode : Constant
Bit rate : 128 Kbps
Channel(s) : 2 channels
Channel positions : Front: L R
Sampling rate : 44.1 KHz
Compression mode : Lossy
Stream size : 113 MiB (12%)
Title : Mafiaking
Language : Hindi
Default : Yes
Forced : No


1a887c.th.png 27f85e.th.png 378101.th.png 44712d.th.png 51b594.th.png 66fbb6.th.png 7.th.png 8a6644.th.png 9.th.png 1055ebc.th.png
 

 

No links available
No downloads available

Genres

Related movies

Watch Dragon ball super