Remember Me
A password will be e-mailed to you.
Please enter your username or email address. You will receive a link to create a new password via email.
Cancel
PerfectHDMovies.me
DVDScr 720p Hate Story 3 (2015) 720p Desi ScrRip – x264 AC3 S3AR3 – DUS ~ 1.47 GB
Report error

Hate Story 3 (2015) 720p Desi ScrRip – x264 AC3 S3AR3 – DUS ~ 1.47 GB

Hate Story 3    

N/A N/A BollywoodBollywood Pre-Releases (Latest)

N/A
IMDB: N/A/10 N/A votes

, , ,

N/A

India

Report error

Hate Story 3 (2015) 720p Desi ScrRip - x264 AC3 S3AR3 - [DUS] @ PerfectHDMovies

Hate Story 3 (2015) 720p Desi ScrRip – x264 AC3 S3AR3 – [DUS]

General
Complete name : Hate Story 3 (2015) 720p Desi ScrRip - x264 AC3 S3AR3 - [DUS].mkv
Format : Matroska
Format version : Version 2
File size : 1.47 GiB
Duration : 2h 6mn
Overall bit rate : 1 662 Kbps
Encoded date : UTC 2015-12-04 14:44:43
Video
ID : 1
Format : AVC
Format/Info : Advanced Video Codec
Format profile : [email protected]
Format settings, CABAC : Yes
Format settings, ReFrames : 4 frames
Codec ID : V_MPEG4/ISO/AVC
Duration : 2h 6mn
Bit rate : 1 245 Kbps
Width : 1 280 pixels
Height : 544 pixels
Display aspect ratio : 2.35:1
Frame rate mode : Constant
Frame rate : 25.000 fps
Color space : YUV
Chroma subsampling : 4:2:0
Bit depth : 8 bits
Scan type : Progressive
Bits/(Pixel*Frame) : 0.071
Stream size : 1.10 GiB (75%)
Writing library : x264 core
Default : Yes
Forced : No
Audio #1
ID : 2
Format : AC-3
Format/Info : Audio Coding 3
Mode extension : CM (complete main)
Format settings, Endianness : Big
Codec ID : A_AC3
Duration : 2h 6mn
Bit rate mode : Constant
Bit rate : 192 Kbps
Channel(s) : 2 channels
Channel positions : Front: L R
Sampling rate : 48.0 KHz
Compression mode : Lossy
Stream size : 174 MiB (12%)
Default : Yes
Forced : No
Audio #2
ID : 3
Format : AC-3
Format/Info : Audio Coding 3
Mode extension : CM (complete main)
Format settings, Endianness : Big
Codec ID : A_AC3
Duration : 2h 6mn
Bit rate mode : Constant
Bit rate : 192 Kbps
Channel(s) : 2 channels
Channel positions : Front: L R
Sampling rate : 48.0 KHz
Compression mode : Lossy
Stream size : 174 MiB (12%)
Default : No
Forced : No

*
*
*
No links available
No downloads available

Genres

Related movies

Watch Dragon ball super