Remember Me
A password will be e-mailed to you.
Please enter your username or email address. You will receive a link to create a new password via email.
Cancel
PerfectHDMovies.me

Hard Target (1993) 720p BRRip HEVC x265 [Dual-Audio][English 2.0+Hindi 2.0] [PKG] 1.110 GB

Hard Target    

R 97 min Dual AudioDual Audio Blu-Ray 720pHEVC

6.1
IMDB: 6.1/10 32,900 votes

, , ,

1 win & 5 nominations.

USA

Report error

Video
ID : 1
Format : HEVC
Format/Info : High Efficiency Video Coding
Codec ID : V_MPEGH/ISO/HEVC
Duration : 1h 39mn
Bit rate : 1 088 Kbps
Width : 1 280 pixels
Height : 696 pixels
Display aspect ratio : 1.85:1
Frame rate mode : Constant
Frame rate : 23.976 fps
Bits/(Pixel*Frame) : 0.051
Stream size : 775 MiB (69%)
Default : Yes
Forced : No
 
Audio #1
ID : 2
Format : AC-3
Format/Info : Audio Coding 3
Mode extension : CM (complete main)
Format settings, Endianness : Big
Codec ID : A_AC3
Duration : 1h 39mn
Bit rate mode : Constant
Bit rate : 224 Kbps
Channel(s) : 2 channels
Channel positions : Front: L R
Sampling rate : 48.0 KHz
Bit depth : 16 bits
Compression mode : Lossy
Stream size : 160 MiB (14%)
Language : Hindi
Default : Yes
Forced : No
 
Audio #2
ID : 3
Format : AC-3
Format/Info : Audio Coding 3
Mode extension : CM (complete main)
Format settings, Endianness : Big
Codec ID : A_AC3
Duration : 1h 39mn
Bit rate mode : Constant
Bit rate : 224 Kbps
Channel(s) : 2 channels
Channel positions : Front: L R
Sampling rate : 48.0 KHz
Bit depth : 16 bits
Compression mode : Lossy
Stream size : 160 MiB (14%)
Language : English
Default : No
Forced : No
Hard_Target_1993_720p_BRRip_HEVC_x265_Dual_Au.jpg
USERSCLOUD
*
USERFILES
*

 

No links available
No downloads available

Genres

Related movies

Watch Dragon ball super