Remember Me
A password will be e-mailed to you.
Please enter your username or email address. You will receive a link to create a new password via email.
Cancel
PerfectHDMovies.me

Happy Bhaag Jayegi (2016) 720p HDRip x264 AC3 5.1 Ch ESuB [Team DUS] 1.56 GiB

Happy Bhaag Jayegi    

N/A 126 min BollywoodBollywood HDRip 720p

6.7
IMDB: 6.7/10 1,478 votes

, , ,

N/A

India

Report error

Happy Bhaag Jayegi (2016) 720p HDRip x264 AC3 5.1 Ch ESuB [Team DUS]

Happy Bhaag Jayegi (2016) 720p HDRip x264 AC3 5.1 Ch ESuB [Team DUS]

General
Complete name               : Happy Bhaag Jayegi (2016) 720p HDRip x264 AC3 5.1 Ch ESuB [Team DUS].mkv
Format                      : Matroska
Format version              : Version 2
File size                   : 1.56 GiB
Duration                    : 2h 5mn
Overall bit rate            : 1 775 Kbps
Encoded By                  : S3AR3

Video
ID                          : 1
Format                      : AVC
Format/Info                 : Advanced Video Codec
Format profile              : [email protected]
Format settings, CABAC      : Yes
Format settings, ReFrames   : 4 frames
Codec ID                    : V_MPEG4/ISO/AVC
Duration                    : 2h 5mn
Bit rate                    : 1 389 Kbps
Width                       : 1 280 pixels
Height                      : 544 pixels
Display aspect ratio        : 2.35:1
Frame rate mode             : Constant
Frame rate                  : 24.000 fps
Color space                 : YUV
Chroma subsampling          : 4:2:0
Bit depth                   : 8 bits
Scan type                   : Progressive
Bits/(Pixel*Frame)          : 0.083
Stream size                 : 1.22 GiB (78%)
Writing library             : x264 core
Default                     : Yes
Forced                      : No

Audio
ID                          : 2
Format                      : AC-3
Format/Info                 : Audio Coding 3
Mode extension              : CM (complete main)
Format settings, Endianness : Big
Codec ID                    : A_AC3
Duration                    : 2h 5mn
Bit rate mode               : Constant
Bit rate                    : 384 Kbps
Channel(s)                  : 6 channels
Channel positions           : Front: L C R, Side: L R, LFE
Sampling rate               : 48.0 KHz
Frame rate                  : 31.250 fps (1536 spf)
Compression mode            : Lossy
Stream size                 : 346 MiB (22%)
Language                    : English
Default                     : Yes
Forced                      : No

ss

Happy Bhaag Jayegi (2016) 720p HDRip x264 AC3 5.1 Ch ESuB [Team DUS]Happy Bhaag Jayegi (2016) 720p HDRip x264 AC3 5.1 Ch ESuB [Team DUS]Happy Bhaag Jayegi (2016) 720p HDRip x264 AC3 5.1 Ch ESuB [Team DUS]

wo

*
*
FLASHSX
*
LETWATCH
dl
 
No links available
No downloads available

Genres

Related movies

Watch Dragon ball super