Remember Me
A password will be e-mailed to you.
Please enter your username or email address. You will receive a link to create a new password via email.
Cancel
PerfectHDMovies.me

Hail Caesar 2016 HC HDRiP XViD ReLeNTLesS

Hail, Caesar!    

PG-13 106 min HollywoodHollywood HDRip

6.7
IMDB: 6.7/10 29,702 votes

,

, , ,

N/A

UK, USA, Japan

Report error

Hail Caesar 2016 HC HDRiP XViD ReLeNTLesS

GENRAL iNF0
General
Complete name                            : Hail.Caesar.2016.HC.HDRiP.XViD.ReLeNTLesS.avi
Format                                   : AVI
Format/Info                              : Audio Video Interleave
File size                                : 1.44 GiB
Duration                                 : 1h 41mn
Overall bit rate                         : 2 032 Kbps

Video
ID                                       : 0
Format                                   : MPEG-4 Visual
Format profile                           : Advanced [email protected]
Format settings, BVOP                    : 1
Format settings, QPel                    : No
Format settings, GMC                     : No warppoints
Format settings, Matrix                  : Default (H.263)
Codec ID                                 : XVID
Codec ID/Hint                            : XviD
Duration                                 : 1h 41mn
Bit rate                                 : 1 704 Kbps
Width                                    : 720 pixels
Height                                   : 384 pixels
Display aspect ratio                     : 1.85:1
Frame rate                               : 25.000 fps
Color space                              : YUV
Chroma subsampling                       : 4:2:0
Bit depth                                : 8 bits
Scan type                                : Progressive
Compression mode                         : Lossy
Bits/(Pixel*Frame)                       : 0.247
Stream size                              : 1.21 GiB (84%)
Writing library                          : XviD 67

Audio
ID                                       : 1
Format                                   : AC-3
Format/Info                              : Audio Coding 3
Mode extension                           : CM (complete main)
Format settings, Endianness              : Big
Codec ID                                 : 2000
Duration                                 : 1h 41mn
Bit rate mode                            : Constant
Bit rate                                 : 320 Kbps
Channel(s)                               : 2 channels
Channel positions                        : Front: L R
Sampling rate                            : 44.1 KHz
Bit depth                                : 16 bits
Compression mode                         : Lossy
Stream size                              : 233 MiB (16%)
Alignment                                : Aligned on interleaves
Interleave, duration                     : 70 ms (1.74 video frames)
Interleave, preload duration             : 208 ms
Sample Included                          : Yes
Source                                   : MP4ba 1080 Thanks
Click To Resize
Click To Resize
Click To Resize
Click To Resize
LETWATACH
*
USERSFILES
*
*
*
*
 

 

No links available
No downloads available

Genres

Related movies

Watch Dragon ball super