Remember Me
A password will be e-mailed to you.
Please enter your username or email address. You will receive a link to create a new password via email.
Cancel
PerfectHDMovies.me

Great Grand Masti (2016) – 1CD – DVDSCR-Rip – Hindi – x264 – MP3 – Mafiaking – M2Tv 710Mb

Great Grand Masti    

N/A N/A BollywoodBollywood Pre-Releases (Latest)

N/A
IMDB: N/A/10 N/A votes

, , ,

N/A

India

Report error

Great Grand Masti (2016) - 1CD - DVDSCR-Rip - Hindi - x264 - MP3 - Mafiaking - M2Tv

Great Grand Masti (2016) – 1CD – DVDSCR-Rip – Hindi – x264 – MP3 – Mafiaking – M2Tv 710Mb

Genere: Comedy

General
Unique ID : 217189294668952762246206859393406931470 (0xA36522F98CC05FB8AC59B1B4D0D1120E)
Complete name : Great Grand Masti (2016) - 1CD - DVDSCR-Rip - Hindi - x264 - MP3 - Mafiaking - M2Tv.mkv
Format : Matroska
Format version : Version 4 / Version 2
File size : 710 MiB
Duration : 2h 14mn
Overall bit rate : 741 Kbps
Movie name : Great Grand Masti (2016) - 1CD - DVDSCR-Rip - Hindi - x264 - MP3 - Mafiaking - M2Tv
Encoded date : UTC 2016-07-05 17:18:40
Writing application : mkvmerge v8.3.0 ('Over the Horizon') 64bit
Writing library : libebml v1.3.1 + libmatroska v1.4.2

Video
ID : 1
Format : AVC
Format/Info : Advanced Video Codec
Format profile : [email protected]
Format settings, CABAC : Yes
Format settings, ReFrames : 3 frames
Codec ID : V_MPEG4/ISO/AVC
Duration : 2h 14mn
Bit rate : 660 Kbps
Width : 640 pixels
Height : 272 pixels
Display aspect ratio : 2.35:1
Frame rate mode : Constant
Frame rate : 23.976 fps
Color space : YUV
Chroma subsampling : 4:2:0
Bit depth : 8 bits
Scan type : Progressive
Bits/(Pixel*Frame) : 0.158
Stream size : 619 MiB (87%)
Title : Mafiaking
Language : Hindi
Default : Yes
Forced : No

Audio
ID : 2
Format : MPEG Audio
Format version : Version 1
Format profile : Layer 3
Mode : Joint stereo
Mode extension : MS Stereo
Codec ID : A_MPEG/L3
Codec ID/Hint : MP3
Duration : 2h 14mn
Bit rate mode : Constant
Bit rate : 80.0 Kbps
Channel(s) : 2 channels
Sampling rate : 32.0 KHz
Compression mode : Lossy
Stream size : 76.7 MiB (11%)
Title : Mafiaking
Writing library : LAME3.99r
Language : Hindi
Default : Yes
Forced : No
No links available
No downloads available

Genres

Related movies

Watch Dragon ball super