Remember Me
A password will be e-mailed to you.
Please enter your username or email address. You will receive a link to create a new password via email.
Cancel
PerfectHDMovies.me

Great Grand Masti (2016) 1/3 DVDSCR – Version 2 – x264 AAC [DDR] 1.4Gb

Great Grand Masti    

N/A N/A BollywoodBollywood Pre-Releases (Latest)

N/A
IMDB: N/A/10 N/A votes

, , ,

N/A

India

Report error

Great Grand Masti (2016) 1/3 DVDSCR - Version 2 - x264 AAC [DDR]

Great Grand Masti (2016) 1/3 DVDSCR – Version 2 – x264 AAC [DDR] 1.4Gb

Great Grand Masti (2016) 1/3 DVDSCR - Version 2 - x264 AAC [DDR]

- BollywooD MoviE -
**- Great Grand Masti -**
- 2016 -
** 1/3 DvDSCR Version 2 rip / x264 / AAC 2.0 **

General
Source = MP4 DUMP @ Munu
Format : Matroska
Format version : Version 4 / Version 2
File size : 1.43 GiB
Duration : 2h 14mn
Overall bit rate : 1 528 Kbps
Encoded date : UTC 2016-07-06 08:26:35
Writing application : mkvmerge v9.2.0 ('Photograph') 64bit
Writing library : libebml v1.3.3 + libmatroska v1.4.4

Video
ID : 1
Format : AVC
Format/Info : Advanced Video Codec
Format profile : [email protected]
Format settings, CABAC : Yes
Format settings, ReFrames : 5 frames
Codec ID : V_MPEG4/ISO/AVC
Duration : 2h 14mn
Bit rate : 1 401 Kbps
Width : 720 pixels
Height : 304 pixels
Display aspect ratio : 2.35:1
Frame rate mode : Constant
Frame rate : 25.000 fps
Color space : YUV
Chroma subsampling : 4:2:0
Bit depth : 8 bits
Scan type : Progressive
Bits/(Pixel*Frame) : 0.256
Stream size : 1.31 GiB (92%)
Language : English
Default : Yes
Forced : No

Audio
ID : 2
Format : AAC
Format/Info : Advanced Audio Codec
Format profile : LC
Codec ID : A_AAC
Duration : 2h 14mn
Bit rate : 125 Kbps
Channel(s) : 2 channels
Channel positions : Front: L R
Sampling rate : 44.1 KHz
Frame rate : 43.066 fps (1024 spf)
Compression mode : Lossy
Stream size : 120 MiB (8%)
Language : Hindi
Default : Yes
Forced : No

Chapters: None on source
Sample: YES - included 

A DDR 8th Anniversary Exclusive Release...!
No links available
No downloads available

Genres

Related movies

Watch Dragon ball super