Remember Me
A password will be e-mailed to you.
Please enter your username or email address. You will receive a link to create a new password via email.
Cancel
PerfectHDMovies.me

Gangs of New York (2002) 720p Blu-Ray x264 [Dual-Audio] [Hindi 2.0 + English 5.1] Esubs [PKG] 1.44 GB

Dual AudioDual Audio Blu-Ray 720p

IMDB: /10 votes

Report error

 
 
Video ID                          : 1 Format                      : AVC Format/Info                 : Advanced Video Codec Format profile              : [email protected] Format settings, CABAC      : Yes Format settings, ReFrames   : 4 frames Codec ID                    : V_MPEG4/ISO/AVC Duration                    : 2h 46mn Bit rate                    : 848 Kbps Width                       : 1 280 pixels Height                      : 544 pixels Display aspect ratio        : 2.35:1 Frame rate mode             : Constant Frame rate                  : 23.976 fps Color space                 : YUV Chroma subsampling          : 4:2:0 Bit depth                   : 8 bits Scan type                   : Progressive Bits/(Pixel*Frame)          : 0.051 Stream size                 : 983 MiB (67%) Title                       : [PKG] Writing library             : x264 core 120 r2164 da19765 Default                     : Yes Forced                      : No Audio #1 ID                          : 2 Format                      : AC-3 Format/Info                 : Audio Coding 3 Mode extension              : CM (complete main) Format settings, Endianness : Big Codec ID                    : A_AC3 Duration                    : 2h 46mn Bit rate mode               : Constant Bit rate                    : 192 Kbps Channel(s)                  : 2 channels Channel positions           : Front: L R Sampling rate               : 48.0 KHz Bit depth                   : 16 bits Compression mode            : Lossy Stream size                 : 229 MiB (16%) Title                       : [PKG] Language                    : Hindi Default                     : Yes Forced                      : No Audio #2 ID                          : 3 Format                      : AC-3 Format/Info                 : Audio Coding 3 Mode extension              : CM (complete main) Format settings, Endianness : Big Codec ID                    : A_AC3 Duration                    : 2h 46mn Bit rate mode               : Constant Bit rate                    : 192 Kbps Channel(s)                  : 6 channels Channel positions           : Front: L C R, Side: L R, LFE Sampling rate               : 48.0 KHz Bit depth                   : 16 bits Compression mode            : Lossy Stream size                 : 229 MiB (16%) Title                       : [PKG] Language                    : English Default                     : No Forced                      : No
GangsofNewYork2002720pBlu-Rayx264Dual-AudioHindi2.0English5.1EsubsPKG.mkv_thumbs_2016.03.08_14.57.09.jpg
*
*
USERFILES
*
*
*
 
 
 
 
 

 

 
No links available
No downloads available

Genres

Related movies

Watch Dragon ball super