Remember Me
A password will be e-mailed to you.
Please enter your username or email address. You will receive a link to create a new password via email.
Cancel
PerfectHDMovies.me

Gangs of New York [2002] 1080p BDRip x264 Dual Audio [Hindi 2 0 +Eng 5 1] Hon3y ~ 3.54 GB

Dual AudioDual Audio Blu-Ray 1080p

IMDB: /10 votes

Report error

 
General
Gangs of New York [2002] 1080p BDRip x264 Dual Audio [Hindi 2.0 +Eng 5.1]…Hon3y.mkv Format : Matroska Format version : Version 4 / Version 2 File size : 3.49 GiB Duration : 2h 46mn Overall bit rate : 3 003 Kbps Movie name : Hon3y Encoded date : UTC 2016-03-04 07:20:37 Writing application : mkvmerge v7.2.0 (‘On Every Street’blnk.png 64bit built on Sep 13 2014 15:52:10 Writing library : libebml v1.3.0 + libmatroska v1.4.1 DURATION : 02:46:35.680000000Video ID : 1 Format : AVC Format/Info : Advanced Video Codec Format profile : [email protected] Format settings, CABAC : Yes Format settings, ReFrames : 4 frames Codec ID : V_MPEG4/ISO/AVC Duration : 2h 46mn Bit rate : 2 619 Kbps Width : 1 920 pixels Height : 816 pixels Display aspect ratio : 2.35:1 Frame rate mode : Constant Frame rate : 23.976 fps Color space : YUV Chroma subsampling : 4:2:0 Bit depth : 8 bits Scan type : Progressive Bits/(Pixel*Frame) : 0.070 Stream size : 2.98 GiB (85%) Title : Hon3y Audio #1 ID : 2 Format : AC-3 Format/Info : Audio Coding 3 Mode extension : CM (complete main) Format settings, Endianness : Big Codec ID : A_AC3 Duration : 2h 46mn Bit rate mode : Constant Bit rate : 192 Kbps Channel(s) : 2 channels Channel positions : Front: L R Sampling rate : 48.0 KHz Bit depth : 16 bits Compression mode : Lossy Stream size : 229 MiB (6%) Title : Hon3y Language : Hindi Default : Yes Forced : No Audio #2 ID : 3 Format : AC-3 Format/Info : Audio Coding 3 Mode extension : CM (complete main) Format settings, Endianness : Big Codec ID : A_AC3 Duration : 2h 46mn Bit rate mode : Constant Bit rate : 192 Kbps Channel(s) : 6 channels Channel positions : Front: L C R, Side: L R, LFE Sampling rate : 48.0 KHz Bit depth : 16 bits Compression mode : Lossy Stream size : 229 MiB (6%) Title : Hon3y Language : English Default : No Forced : No
No links available
No downloads available

Genres

Related movies

Watch Dragon ball super