Remember Me
A password will be e-mailed to you.
Please enter your username or email address. You will receive a link to create a new password via email.
Cancel
PerfectHDMovies.me

Gallowwalkers (2012) 720p Blu-Ray x264 [Dual-Audio] [English 5.1 + Hindi] – Mafiaking – Team M2TV

NO    

NO NO Dual AudioDual Audio Blu-Ray 720p

3.6
IMDB: 3.6/10 NO votes

NO

Report error

Gallowwalkers (2012) 720p Blu-Ray x264 [Dual-Audio] [English 5.1 + Hindi] - Mafiaking - Team M2TV

Gallowwalkers (2012) 720p Blu-Ray x264 [Dual-Audio] [English 5.1 + Hindi] – Mafiaking – Team M2TV

http://www.imdb.com/title/tt0829176/
Ratings: 3.6/10
GENRE: Action | Fantasy | Horror

General
Format : Matroska
Format version : Version 4 / Version 2
File size : 894 MiB
Duration : 1h 32mn
Overall bit rate : 1 352 Kbps

Video
ID : 1
Format : AVC
Format/Info : Advanced Video Codec
Format profile : [email protected]
Format settings, CABAC : Yes
Format settings, ReFrames : 4 frames
Codec ID : V_MPEG4/ISO/AVC
Duration : 1h 32mn
Bit rate : 1 000 Kbps
Width : 1 280 pixels
Height : 544 pixels
Display aspect ratio : 2.35:1
Frame rate mode : Constant
Frame rate : 23.976 fps
Color space : YUV
Chroma subsampling : 4:2:0
Bit depth : 8 bits
Scan type : Progressive
Bits/(Pixel*Frame) : 0.060
Stream size : 643 MiB (72%)
Title : Mafiaking
Language : English
Default : Yes
Forced : No


Audio #1
ID : 2
Format : MPEG Audio
Format version : Version 1
Format profile : Layer 3
Codec ID : A_MPEG/L3
Codec ID/Hint : MP3
Duration : 1h 32mn
Bit rate mode : Constant
Bit rate : 128 Kbps
Channel(s) : 2 channels
Sampling rate : 44.1 KHz
Compression mode : Lossy
Stream size : 84.6 MiB (9%)
Title : Mafiaking
Language : Hindi
Default : Yes
Forced : No


Audio #2
ID : 3
Format : AC-3
Format/Info : Audio Coding 3
Mode extension : CM (complete main)
Format settings, Endianness : Big
Codec ID : A_AC3
Duration : 1h 32mn
Bit rate mode : Constant
Bit rate : 224 Kbps
Channel(s) : 6 channels
Channel positions : Front: L C R, Side: L R, LFE
Sampling rate : 48.0 KHz
Bit depth : 16 bits
Compression mode : Lossy
Stream size : 148 MiB (17%)
Title : Mafiaking
Language : English
Default : No
Forced : No
No links available
No downloads available

Genres

Related movies

Watch Dragon ball super