Remember Me
A password will be e-mailed to you.
Please enter your username or email address. You will receive a link to create a new password via email.
Cancel
PerfectHDMovies.me

Finding Dory – 2016 – HDTS – Dual Audio (Hindi – English) x264 – AAC – Makintos13 – 810Mb

Finding Dory    

PG 103 min Dual AudioDual Audio Pre-Releases (Latest)

8.2
IMDB: 8.2/10 13,158 votes

,

, , ,

N/A

USA

Report error

Finding Dory - 2016 - HD-TS - Dual Audio (English - Hindi) x264 - 800MB - AAC - Makintos13

Finding Dory – 2016 – HD-TS – Dual Audio (English – Hindi) x264 – AAC – Makintos13 – 810Mb

Format : Matroska
Format version : Version 4 / Version 2
File size : 809 MiB
Duration : 1h 26mn
Overall bit rate : 1 302 Kbps

Video
ID : 3
Format : AVC
Format/Info : Advanced Video Codec
Format profile : [email protected]
Format settings, CABAC : Yes
Format settings, ReFrames : 4 frames
Codec ID : V_MPEG4/ISO/AVC
Duration : 1h 26mn
Bit rate : 1 170 Kbps
Width : 720 pixels
Height : 384 pixels
Display aspect ratio : 1.85:1
Frame rate mode : Constant
Frame rate : 29.970 (30000/1001) fps
Color space : YUV
Chroma subsampling : 4:2:0
Bit depth : 8 bits
Scan type : Progressive
Bits/(Pixel*Frame) : 0.141
Stream size : 727 MiB (90%)
Default : Yes
Forced : No

Audio #1
ID : 1
Format : AAC
Format/Info : Advanced Audio Codec
Format profile : LC
Codec ID : A_AAC
Duration : 1h 26mn
Bit rate : 64.3 Kbps
Channel(s) : 2 channels
Channel positions : Front: L R
Sampling rate : 48.0 KHz
Frame rate : 46.875 fps (1024 spf)
Compression mode : Lossy
Delay relative to video : 46ms
Stream size : 40.0 MiB (5%)
Title : Stereo
Language : English
Default : Yes
Forced : No

Audio #2
ID : 2
Format : AAC
Format/Info : Advanced Audio Codec
Format profile : LC
Codec ID : A_AAC
Duration : 1h 26mn
Bit rate : 64.1 Kbps
Channel(s) : 2 channels
Channel positions : Front: L R
Sampling rate : 48.0 KHz
Frame rate : 46.875 fps (1024 spf)
Compression mode : Lossy
Delay relative to video : 46ms
Stream size : 39.9 MiB (5%)
Title : Stereo
Language : Hindi
Default : No
Forced : No
No links available
No downloads available

Genres

Related movies

Watch Dragon ball super