Remember Me
A password will be e-mailed to you.
Please enter your username or email address. You will receive a link to create a new password via email.
Cancel
PerfectHDMovies.me

Finding Dory (2016) 1080p BDRip Dual Audio Org BD Hindi.5.1+Eng.5.1~{DOOMSDAY}~ 3.79 GB

Finding Dory    

PG 97 min Dual AudioDual Audio Blu-Ray 1080p

7.6
IMDB: 7.6/10 92,723 votes

,

, , ,

2 wins & 2 nominations.

USA

Report error

Finding Dory (2016) 1080p BDRip Dual Audio Org BD Hindi.5.1+Eng.5.1~{DOOMSDAY}~ 3.79 GB

Finding Dory (2016) 1080p BDRip Dual Audio Org BD Hindi.5.1+Eng.5.1~{DOOMSDAY}~ 3.79 GB

Complete name               : Finding.Dory.(2016).[email protected]}~-.mkv
Format                      : Matroska
Format version              : Version 4 / Version 2
File size                   : 3.72 GiB
Duration                    : 1 h 37 min
Overall bit rate mode       : Variable
Overall bit rate            : 5 492 kb/s
Movie name                  : Finding.Dory.(2016).[email protected]}~-

Video
ID                          : 1
Format                      : AVC
Format/Info                 : Advanced Video Codec
Format profile              : [email protected]
Format settings, CABAC      : Yes
Format settings, ReFrames   : 4 frames
Codec ID                    : V_MPEG4/ISO/AVC
Duration                    : 1 h 37 min
Bit rate mode               : Variable
Bit rate                    : 4 192 kb/s
Maximum bit rate            : 62.5 Mb/s
Width                       : 1 920 pixels
Height                      : 1 080 pixels
Display aspect ratio        : 16:9
Frame rate mode             : Constant
Frame rate                  : 23.976 (24000/1001) FPS
Color space                 : YUV
Chroma subsampling          : 4:2:0
Bit depth                   : 8 bits
Scan type                   : Progressive
Bits/(Pixel*Frame)          : 0.084
Stream size                 : 2.84 GiB (76%)
Title                       : Finding.Dory.(2016).[email protected]}~-
Language                    : English
Default                     : Yes
Forced                      : No

Audio #1
ID                          : 2
Format                      : AC-3
Format/Info                 : Audio Coding 3
Mode extension              : CM (complete main)
Format settings, Endianness : Big
Codec ID                    : A_AC3
Duration                    : 1 h 37 min
Bit rate mode               : Constant
Bit rate                    : 640 kb/s
Channel(s)                  : 6 channels
Channel positions           : Front: L C R, Side: L R, LFE
Sampling rate               : 48.0 kHz
Frame rate                  : 31.250 FPS (1536 spf)
Compression mode            : Lossy
Stream size                 : 444 MiB (12%)
Title                       : RiPPER~ L3GEND~ Org BluRay 5.1 @ 640kbps~
Language                    : English
Default                     : No
Forced                      : No

Audio #2
ID                          : 3
Format                      : AC-3
Format/Info                 : Audio Coding 3
Mode extension              : CM (complete main)
Format settings, Endianness : Big
Codec ID                    : A_AC3
Duration                    : 1 h 37 min
Bit rate mode               : Constant
Bit rate                    : 640 kb/s
Channel(s)                  : 6 channels
Channel positions           : Front: L C R, Side: L R, LFE
Sampling rate               : 48.0 kHz
Frame rate                  : 31.250 FPS (1536 spf)
Compression mode            : Lossy
Stream size                 : 444 MiB (12%)
Title                       : RiPPER~ L3GEND~ Org BluRay 5.1 @ 640kbps~
Language                    : Hindi
Default                     : Yes
Forced                      : No

Text #1
ID                          : 4
Format                      : PGS
Muxing mode                 : zlib
Codec ID                    : S_HDMV/PGS
Codec ID/Info               : Picture based subtitle format used on BDs/HD-DVDs
Duration                    : 1 h 35 min
Bit rate                    : 17.5 kb/s
Count of elements           : 3530
Stream size                 : 11.9 MiB (0%)
Title                       : ~L3GEND~
Language                    : English
Default                     : No
Forced                      : No

Text #2
ID                          : 5
Format                      : PGS
Muxing mode                 : zlib
Codec ID                    : S_HDMV/PGS
Codec ID/Info               : Picture based subtitle format used on BDs/HD-DVDs
Duration                    : 1 h 36 min
Bit rate                    : 28 b/s
Count of elements           : 108
Stream size                 : 20.0 KiB (0%)
Title                       : ~L3GEND~
Language                    : Hindi
Default                     : Yes
Forced                      : No

ss

 Sample

wo

*
*
FLASHSX
*
LETWATCH
dl
USERSCLOUD
*
*
*
INDISHARE
*
BDUPLOD
*
*
*
No links available
No downloads available

Genres

Related movies

Watch Dragon ball super