Remember Me
A password will be e-mailed to you.
Please enter your username or email address. You will receive a link to create a new password via email.
Cancel
PerfectHDMovies.me

Feast Of The Body 2016 1080p WEB-DL x264 AC3 1.5GB

Feast of the Body    

N/A 83 min HollywoodHollywood Pre-Releases (Latest)Hollywood WEB-DL 1080p

N/A
IMDB: N/A/10 N/A votes

, , ,

N/A

USA

Report error

Feast Of The Body 2016 1080p WEB-DL x264 AC3 1.5GB

Feast Of The Body 2016 1080p WEB-DL x264 AC3 1.5GB

When a mysterious man stops a world wide storm with the swipe of his hand, life as we know it changes, and the source of his divine power must be found before humanity self destructs.

http://www.imdb.com/title/tt4076344/

Cast

Jeremy Walton ... Ben
Laura Alexandra Ramos ... Cassandra
Valerie Mya ... Lena
Adam Brown ... Cal
Video
ID                                       : 1
Format                                   : AVC
Format/Info                              : Advanced Video Codec
Format profile                           : [email protected]
Format settings, CABAC                   : Yes
Format settings, ReFrames                : 5 frames
Codec ID                                 : avc1
Codec ID/Info                            : Advanced Video Coding
Duration                                 : 1 h 23 min
Bit rate                                 : 2 200 kb/s
Width                                    : 1 916 pixels
Height                                   : 780 pixels
Display aspect ratio                     : 2.456
Frame rate mode                          : Variable
Frame rate                               : 23.976 FPS
Minimum frame rate                       : 11.989 FPS
Maximum frame rate                       : 23.981 FPS
Color space                              : YUV
Chroma subsampling                       : 4:2:0
Bit depth                                : 8 bits
Scan type                                : Progressive
Bits/(Pixel*Frame)                       : 0.061
Stream size                              : 1.28 GiB (85%)
Writing library                          : x264 core 142 r2479 dd79a61
Encoding settings                        : cabac=1 / ref=5 / deblock=1:-1:-1 / analyse=0x3:0x133 / me=umh / subme=9 / psy=1 / psy_rd=1.00:0.15 / mixed_ref=1 / me_range=16 / chroma_me=1 / trellis=2 / 8x8dct=1 / cqm=0 / deadzone=21,11 / fast_pskip=1 / chroma_qp_offset=-3 / threads=12 / lookahead_threads=1 / sliced_threads=0 / nr=0 / decimate=1 / interlaced=0 / bluray_compat=0 / constrained_intra=0 / bframes=3 / b_pyramid=2 / b_adapt=2 / b_bias=0 / direct=3 / weightb=1 / open_gop=0 / weightp=2 / keyint=240 / keyint_min=24 / scenecut=40 / intra_refresh=0 / rc_lookahead=60 / rc=2pass / mbtree=1 / bitrate=2200 / ratetol=1.0 / qcomp=0.60 / qpmin=0 / qpmax=69 / qpstep=4 / cplxblur=20.0 / qblur=0.5 / vbv_maxrate=62500 / vbv_bufsize=78125 / nal_hrd=none / filler=0 / ip_ratio=1.40 / aq=1:1.00
Encoded date                             : UTC 2016-10-25 19:00:50
Tagged date                              : UTC 2016-10-25 19:00:50
Color range                              : Limited
Color primaries                          : BT.709
Transfer characteristics                 : BT.709
Matrix coefficients                      : BT.709
Menus                                    : 3

Audio
ID                                       : 2
Format                                   : AC-3
Format/Info                              : Audio Coding 3
Mode extension                           : CM (complete main)
Format settings, Endianness              : Big
Codec ID                                 : ac-3
Duration                                 : 1 h 23 min
Bit rate mode                            : Constant
Bit rate                                 : 384 kb/s
Channel(s)                               : 6 channels
Channel positions                        : Front: L C R, Side: L R, LFE
Sampling rate                            : 48.0 kHz
Frame rate                               : 31.250 FPS (1536 spf)
Bit depth                                : 16 bits
Compression mode                         : Lossy
Stream size                              : 228 MiB (15%)
Title                                    : Surround / Surround
Language                                 : English
Default                                  : Yes
Alternate group                          : 1
Encoded date                             : UTC 2016-10-25 19:00:50
Tagged date                              : UTC 2016-10-25 19:00:50
Menus                                    : 3

Menu
ID                                       : 3
Codec ID                                 : text
Duration                                 : 1 h 23 min
Language                                 : English
Encoded date                             : UTC 2016-10-25 19:00:50
Tagged date                              : UTC 2016-10-25 19:00:50
Bit rate mode                            : CBR
Menu For                                 : 1,2
00:00:00.000                             : Chapter 1
00:09:47.129                             : Chapter 2
00:20:53.170                             : Chapter 3
00:31:14.208                             : Chapter 4
00:40:46.196                             : Chapter 5
00:50:53.178                             : Chapter 6
01:02:12.191                             : Chapter 7
01:11:44.137                             : Chapter 8
01:20:01.134                             : Chapter 9

ss

Feast Of The Body 2016 1080p WEB-DL x264 AC3 1.5GB

Feast Of The Body 2016 1080p WEB-DL x264 AC3 1.5GB

No links available
No downloads available

Genres

Related movies

Watch Dragon ball super