Remember Me
A password will be e-mailed to you.
Please enter your username or email address. You will receive a link to create a new password via email.
Cancel
PerfectHDMovies.me

Fan (2016) – 1CD – New DVDSCR-Rip – Hindi – x264 – MP3 – Mafiaking – M2Tv

Fan    

N/A 142 min BollywoodBollywood Pre-Releases (Latest)

N/A
IMDB: N/A/10 N/A votes

, , ,

N/A

India

Report error

General
 Unique ID : 185276437088362152801521218722359618554 (0x8B62F19E0AD9E69DACE6AA72356B2BFA)
 Complete name : Fan (2016) - 1CD - New DVDSCR-Rip - Hindi - x264 - MP3 - Mafiaking - M2Tv.mkv
 Format : Matroska
 Format version : Version 4 / Version 2
 File size : 709 MiB
 Duration : 2h 18mn
 Overall bit rate : 717 Kbps
 Movie name : Fan (2016) - 1CD - New DVDSCR-Rip - Hindi - x264 - MP3 - Mafiaking - M2Tv
 Encoded date : UTC 2016-04-17 16:31:51
 Writing application : mkvmerge v7.9.0 ('Birds') 64bit
 Writing library : libebml v1.3.1 + libmatroska v1.4.2
 
 Video
 ID : 1
 Format : AVC
 Format/Info : Advanced Video Codec
 Format profile : [email protected]
 Format settings, CABAC : Yes
 Format settings, ReFrames : 4 frames
 Codec ID : V_MPEG4/ISO/AVC
 Duration : 2h 18mn
 Bit rate : 635 Kbps
 Width : 640 pixels
 Height : 272 pixels
 Display aspect ratio : 2.35:1
 Frame rate mode : Constant
 Frame rate : 29.970 fps
 Color space : YUV
 Chroma subsampling : 4:2:0
 Bit depth : 8 bits
 Scan type : Progressive
 Bits/(Pixel*Frame) : 0.122
 Stream size : 616 MiB (87%)
 Title : Mafiaking
 Language : Hindi
 Default : Yes
 Forced : No
 
 Audio
 ID : 2
 Format : MPEG Audio
 Format version : Version 1
 Format profile : Layer 3
 Mode : Joint stereo
 Mode extension : MS Stereo
 Codec ID : A_MPEG/L3
 Codec ID/Hint : MP3
 Duration : 2h 18mn
 Bit rate mode : Constant
 Bit rate : 80.0 Kbps
 Channel(s) : 2 channels
 Sampling rate : 32.0 KHz
 Compression mode : Lossy
 Stream size : 79.1 MiB (11%)
 Title : Mafiaking
 Language : Hindi
 Default : Yes
 Forced : No
No links available
No downloads available

Genres

Related movies

Watch Dragon ball super