Remember Me
A password will be e-mailed to you.
Please enter your username or email address. You will receive a link to create a new password via email.
Cancel
PerfectHDMovies.me
DD 5.1 Audio Everest (2015) 720p BluRay x264 [Dual-Audio] [English DD 5.1+Hindi DD 5.1] – Mafiaking – M2Tv
Report error

Everest (2015) 720p BluRay x264 [Dual-Audio] [English DD 5.1+Hindi DD 5.1] – Mafiaking – M2Tv

Everest    

PG-13 121 min Dual AudioDual Audio Blu-Ray 720p

7.2
IMDB: 7.2/10 70,693 votes

, , ,

3 nominations.

UK, USA, Iceland

Report error

Everest (2015) 720p BluRay x264 [Dual-Audio] [English DD 5.1+Hindi DD 5.1] - Mafiaking - M2Tv @PerfectHDMovies

Everest (2015) 720p BluRay x264 [Dual-Audio] [English DD 5.1+Hindi DD 5.1] – Mafiaking – M2Tv


 Ratings: 7.1/10
GENRE: Adventure, Biography, Drama
General
Unique ID : 209637644164144506802556927618854355481 (0x9DB6BDDBE64EB354B040C48E96F30219)
 Complete name : Everest (2015) 720p BluRay x264 [Dual-Audio] [English DD 5.1+Hindi DD 5.1] - Mafiaking - M2Tv.mkv
 Format : Matroska
 Format version : Version 4 / Version 2
 File size : 1.16 GiB
 Duration : 2h 1mn
 Overall bit rate : 1 375 Kbps
 Movie name : Everest (2015) 720p BluRay x264 [Dual-Audio] [English DD 5.1+Hindi DD 5.1] - Mafiaking - M2Tv
 Encoded date : UTC 2016-01-10 16:27:55
 Writing application : mkvmerge v7.6.0 ('Garden of Dreams') 64bit built on Feb 8 2015 13:04:34
 Writing library : libebml v1.3.1 + libmatroska v1.4.2
Video
ID : 1
 Format : AVC
 Format/Info : Advanced Video Codec
 Format profile : [email protected]
 Format settings, CABAC : Yes
 Format settings, ReFrames : 4 frames
 Codec ID : V_MPEG4/ISO/AVC
 Duration : 2h 1mn
 Bit rate : 925 Kbps
 Width : 1 280 pixels
 Height : 536 pixels
 Display aspect ratio : 2.40:1
 Frame rate mode : Constant
 Frame rate : 23.976 fps
 Color space : YUV
 Chroma subsampling : 4:2:0
 Bit depth : 8 bits
 Scan type : Progressive
 Bits/(Pixel*Frame) : 0.056
 Stream size : 780 MiB (65%)
 Title : Mafiaking
 Language : English
 Default : Yes
 Forced : No
Audio #1
ID : 2
 Format : AC-3
 Format/Info : Audio Coding 3
 Mode extension : CM (complete main)
 Format settings, Endianness : Big
 Codec ID : A_AC3
 Duration : 2h 1mn
 Bit rate mode : Constant
 Bit rate : 224 Kbps
 Channel(s) : 6 channels
 Channel positions : Front: L C R, Side: L R, LFE
 Sampling rate : 48.0 KHz
 Compression mode : Lossy
 Stream size : 194 MiB (16%)
 Title : Mafiaking
 Language : Hindi
 Default : Yes
 Forced : No

Audio #2

ID : 3
 Format : AC-3
 Format/Info : Audio Coding 3
 Mode extension : CM (complete main)
 Format settings, Endianness : Big
 Codec ID : A_AC3
 Duration : 2h 1mn
 Bit rate mode : Constant
 Bit rate : 224 Kbps
 Channel(s) : 6 channels
 Channel positions : Front: L C R, Side: L R, LFE
 Sampling rate : 48.0 KHz
 Compression mode : Lossy
 Stream size : 194 MiB (16%)
 Title : Mafiaking
 Language : English
 Default : No
 Forced : No
Thanks To TITAN For Hindi Audio. 
All Credit Goes To "M2Tv"

 


Sample


No links available
No downloads available

Genres

Related movies

Watch Dragon ball super