Remember Me
A password will be e-mailed to you.
Please enter your username or email address. You will receive a link to create a new password via email.
Cancel
PerfectHDMovies.me

Eragon (2006) 1080p BDRip Dual Audio Org DD Hindi 5.1+Eng 5.1 -~{DOOMSDAY}~- 2.82 GB

Eragon    

PG 104 min Dual AudioDual Audio Blu-Ray 1080p

5.1
IMDB: 5.1/10 108,785 votes

, , ,

1 win & 6 nominations.

USA, UK, Hungary

Report error

Eragon (2006) 1080p BDRip Dual Audio Org DD Hindi 5.1+Eng 5.1 -~{DOOMSDAY}~- 2.82 GB

Eragon (2006) 1080p BDRip Dual Audio Org DD Hindi 5.1+Eng 5.1 -~{DOOMSDAY}~- 2.82 GB

Complete name               : Eragon.(2006).[email protected]}~-.mkv
Format                      : Matroska
Format version              : Version 4 / Version 2
File size                   : 2.77 GiB
Duration                    : 1 h 39 min
Overall bit rate mode       : Variable
Overall bit rate            : 3 975 kb/s
Movie name                  : Eragon.(2006).[email protected]}~-

Video
ID                          : 1
Format                      : AVC
Format/Info                 : Advanced Video Codec
Format profile              : [email protected]
Format settings, CABAC      : Yes
Format settings, ReFrames   : 5 frames
Codec ID                    : V_MPEG4/ISO/AVC
Duration                    : 1 h 39 min
Bit rate mode               : Variable
Bit rate                    : 3 000 kb/s
Maximum bit rate            : 62.5 Mb/s
Width                       : 1 920 pixels
Height                      : 818 pixels
Display aspect ratio        : 2.35:1
Frame rate mode             : Constant
Frame rate                  : 25.000 FPS
Original frame rate         : 23.976 (24000/1001) FPS
Color space                 : YUV
Chroma subsampling          : 4:2:0
Bit depth                   : 8 bits
Scan type                   : Progressive
Bits/(Pixel*Frame)          : 0.076
Stream size                 : 2.18 GiB (79%)
Title                       : Eragon.(2006).[email protected]}~-
Language                    : English
Default                     : Yes
Forced                      : No

Audio #1
ID                          : 2
Format                      : AC-3
Format/Info                 : Audio Coding 3
Mode extension              : CM (complete main)
Format settings, Endianness : Big
Codec ID                    : A_AC3
Duration                    : 1 h 39 min
Bit rate mode               : Constant
Bit rate                    : 448 kb/s
Channel(s)                  : 6 channels
Channel positions           : Front: L C R, Side: L R, LFE
Sampling rate               : 48.0 kHz
Frame rate                  : 31.250 FPS (1536 spf)
Compression mode            : Lossy
Stream size                 : 320 MiB (11%)
Title                       : Ripper~ L3GEND~ Org Dolby Digital [email protected]
Language                    : English
Default                     : No
Forced                      : No

Audio #2
ID                          : 3
Format                      : AC-3
Format/Info                 : Audio Coding 3
Mode extension              : CM (complete main)
Format settings, Endianness : Big
Codec ID                    : A_AC3
Duration                    : 1 h 39 min
Bit rate mode               : Constant
Bit rate                    : 384 kb/s
Channel(s)                  : 6 channels
Channel positions           : Front: L C R, Side: L R, LFE
Sampling rate               : 48.0 kHz
Frame rate                  : 31.250 FPS (1536 spf)
Compression mode            : Lossy
Stream size                 : 274 MiB (10%)
Title                       : Ripper~ L3GEND~ Org Dolby Digital [email protected]
Language                    : Hindi
Default                     : Yes
Forced                      : No

Text
ID                          : 4
Format                      : PGS
Muxing mode                 : zlib
Codec ID                    : S_HDMV/PGS
Codec ID/Info               : Picture based subtitle format used on BDs/HD-DVDs
Duration                    : 1 h 32 min
Bit rate                    : 14.9 kb/s
Count of elements           : 2172
Stream size                 : 9.90 MiB (0%)
Title                       : L3GEND~ PGS~
Language                    : English
Default                     : Yes
Forced                      : No

ss

Eragon (2006) 1080p BDRip Dual Audio Org DD Hindi 5.1+Eng 5.1 -~{DOOMSDAY}~- 2.82 GBEragon (2006) 1080p BDRip Dual Audio Org DD Hindi 5.1+Eng 5.1 -~{DOOMSDAY}~- 2.82 GBEragon (2006) 1080p BDRip Dual Audio Org DD Hindi 5.1+Eng 5.1 -~{DOOMSDAY}~- 2.82 GB

SAMPLE

wo

*
*
FLASHSX
*
LETWATCH
dl
*
*
*
INDISHARE
*
BDUPLOD
*
*
*
No links available
No downloads available

Genres

Related movies

Watch Dragon ball super