Remember Me
A password will be e-mailed to you.
Please enter your username or email address. You will receive a link to create a new password via email.
Cancel
PerfectHDMovies.me

Elvis & Nixon (2016) [1080p] (r3h) [web-dl] AVC 1.3GB

Elvis & Nixon    

R 86 min HollywoodHollywood WEB-DL 1080p

6.5
IMDB: 6.5/10 3,508 votes

, , ,

1 nomination.

USA

Report error

Elvis & Nixon (2016) [1080p] (r3h) [web-dl] AVC 1.3GB

Elvis & Nixon (2016) [1080p] (r3h) [web-dl] AVC  1.3GB

General
Complete name                            :Elvis.&.Nixon.2016.1080p.BluRay.x264.mp4
Format                                   : MPEG-4
Format profile                           : Base Media
Codec ID                                 : isom (isom/iso2/avc1/mp41)
File size                                : 1.31 GiB
Duration                                 : 1 h 26 min
Overall bit rate                         : 2 172 kb/s
Writing application                      : Lavf57.22.100

Video
ID                                       : 1
Format                                   : AVC
Format/Info                              : Advanced Video Codec
Format profile                           : [email protected]
Format settings, CABAC                   : Yes
Format settings, ReFrames                : 4 frames
Codec ID                                 : avc1
Codec ID/Info                            : Advanced Video Coding
Duration                                 : 1 h 26 min
Bit rate                                 : 2 050 kb/s
Width                                    : 1 920 pixels
Height                                   : 800 pixels
Display aspect ratio                     : 2.40:1
Frame rate mode                          : Constant
Frame rate                               : 23.976 FPS
Color space                              : YUV
Chroma subsampling                       : 4:2:0
Bit depth                                : 8 bits
Scan type                                : Progressive
Bits/(Pixel*Frame)                       : 0.056
Stream size                              : 1.23 GiB (94%)
Writing library                          : x264 core 148


Audio
ID                                       : 2
Format                                   : AAC
Format/Info                              : Advanced Audio Codec
Format profile                           : LC
Codec ID                                 : 40
Duration                                 : 1 h 26 min
Bit rate mode                            : Constant
Bit rate                                 : 115 kb/s
Channel(s)                               : 2 channels
Channel positions                        : Front: L R
Sampling rate                            : 48.0 kHz
Frame rate                               : 46.875 FPS (1024 spf)
Compression mode                         : Lossy
Stream size                              : 71.1 MiB (5%)
Default                                  : Yes
Alternate group                          : 1

   
 Elvis & Nixon (2016) [1080p] (r3h) [web-dl] AVC 1.3GBElvis & Nixon (2016) [1080p] (r3h) [web-dl] AVC 1.3GBElvis & Nixon (2016) [1080p] (r3h) [web-dl] AVC 1.3GB

 

LETWATCH
*
*
*
MULTIUP
*
JHEBERG
*
GO4UP 
 

 

No links available
No downloads available

Genres

Related movies

Watch Dragon ball super