Remember Me
A password will be e-mailed to you.
Please enter your username or email address. You will receive a link to create a new password via email.
Cancel
PerfectHDMovies.me

Ek Paheli Leelav(2015) WEB-HD Untouched 1080p ESub Hon3yHD 3.8 Gb

Ek Paheli Leela    

N/A 145 min BollywoodBollywood WEB-DL 1080p

3.8
IMDB: 3.8/10 1,198 votes

, , ,

N/A

India

Report error

Ek Paheli Leelav(2015) WEB-HD Untouched 1080p ESub Hon3yHD

Ek Paheli Leelav(2015) WEB-HD Untouched 1080p ESub Hon3yHD

Format                      : Matroska
Format version              : Version 4 / Version 2
File size                   : 3.85 GiB
Duration                    : 2h 13mn
Overall bit rate            : 4 115 Kbps

Video
ID                          : 1
Format                      : AVC
Format/Info                 : Advanced Video Codec
Format profile              : [email protected]
Format settings, CABAC      : Yes
Format settings, ReFrames   : 3 frames
Codec ID                    : V_MPEG4/ISO/AVC
Duration                    : 2h 13mn
Bit rate                    : 3 984 Kbps
Width                       : 1 920 pixels
Height                      : 824 pixels
Display aspect ratio        : 2.35:1
Frame rate mode             : Constant
Frame rate                  : 25.000 fps
Stream size                 : 3.73 GiB (97%)

Audio
ID                          : 2
Format                      : AAC
Format/Info                 : Advanced Audio Codec
Format profile              : LC
Codec ID                    : A_AAC
Duration                    : 2h 13mn
Bit rate                    : 128 Kbps
Channel(s)                  : 2 channels
Channel positions           : Front: L R
Sampling rate               : 44.1 KHz
Frame rate                  : 43.066 fps (1024 spf)
Delay relative to video     : -60ms
Stream size                 : 123 MiB (3%)

  Ek Paheli Leelav(2015) WEB-HD Untouched 1080p ESub Hon3yHDEk Paheli Leelav(2015) WEB-HD Untouched 1080p ESub Hon3yHDEk Paheli Leelav(2015) WEB-HD Untouched 1080p ESub Hon3yHD

LETWATACH
*
WATCHVIDEO
*
VODLOCKER
*
*
*
*
*
GO4UP 
 
No links available
No downloads available

Genres

Related movies

Watch Dragon ball super