Remember Me
A password will be e-mailed to you.
Please enter your username or email address. You will receive a link to create a new password via email.
Cancel
PerfectHDMovies.me

Drive Hard (2014) 720p Blu-Ray x264 [Dual-Audio] [English 5.1 + Hindi] – Mafiaking – Team TellyTNT

NO    

NO NO Dual AudioDual Audio Blu-Ray 720p

4.3
IMDB: 4.3/10 NO votes

NO

Report error

Drive Hard (2014) 720p Blu-Ray x264 [Dual-Audio] [English 5.1 + Hindi] - Mafiaking - Team TellyTNT

Drive Hard (2014) 720p Blu-Ray x264 [Dual-Audio] [English 5.1 + Hindi] – Mafiaking – Team TellyTNT

http://www.imdb.com/title/tt2968804/
Ratings: 4.4/10
GENRE: Action | Comedy | Crime

General
Format : Matroska
Format version : Version 4 / Version 2
File size : 911 MiB
Duration : 1h 35mn
Overall bit rate : 1 329 Kbps


Video
ID : 1
Format : AVC
Format/Info : Advanced Video Codec
Format profile : [email protected]
Format settings, CABAC : Yes
Format settings, ReFrames : 4 frames
Codec ID : V_MPEG4/ISO/AVC
Duration : 1h 35mn
Bit rate : 951 Kbps
Nominal bit rate : 1 000 Kbps
Width : 1 280 pixels
Height : 720 pixels
Display aspect ratio : 16:9
Frame rate mode : Constant
Frame rate : 23.976 fps
Color space : YUV
Chroma subsampling : 4:2:0
Bit depth : 8 bits
Scan type : Progressive
Bits/(Pixel*Frame) : 0.043
Stream size : 651 MiB (72%)
Title : Mafiaking
Language : English
Default : Yes
Forced : No


Audio #1
ID : 2
Format : AC-3
Format/Info : Audio Coding 3
Mode extension : CM (complete main)
Format settings, Endianness : Big
Codec ID : A_AC3
Duration : 1h 35mn
Bit rate mode : Constant
Bit rate : 128 Kbps
Channel(s) : 2 channels
Channel positions : Front: L R
Sampling rate : 48.0 KHz
Bit depth : 16 bits
Compression mode : Lossy
Stream size : 87.7 MiB (10%)
Title : Mafiaking
Language : Hindi
Default : Yes
Forced : No


Audio #2
ID : 3
Format : AC-3
Format/Info : Audio Coding 3
Mode extension : CM (complete main)
Format settings, Endianness : Big
Codec ID : A_AC3
Duration : 1h 35mn
Bit rate mode : Constant
Bit rate : 224 Kbps
Channel(s) : 6 channels
Channel positions : Front: L C R, Side: L R, LFE
Sampling rate : 48.0 KHz
Bit depth : 16 bits
Compression mode : Lossy
Stream size : 154 MiB (17%)
Title : Mafiaking
Language : English
Default : No
Forced : No
No links available
No downloads available

Genres

Related movies

Watch Dragon ball super