Remember Me
A password will be e-mailed to you.
Please enter your username or email address. You will receive a link to create a new password via email.
Cancel
PerfectHDMovies.me

Dirty Grandpa 2016 TS XviD-STANDARD 1.1 GB

Dirty Grandpa    

R 102 min HollywoodHollywood Pre-Releases (Latest)

N/A
IMDB: N/A/10 N/A votes

, , ,

N/A

USA

Report error

Dirty.Grandpa.2016.TS.XviD-STANDARD

SOURCES USED WERE – D.CAMRip.1400MB // audio – exclusive

WORK DONE = gave it a 3.0 rotate first off then fix perspective better, so its kinda straight now unlike the source file and the other rip, enjoy.

http://www.imdb.com/title/tt1860213/

Right before his wedding, an uptight guy is tricked into driving his grandfather, a perverted former Army Lieutenant-Colonel “Special Forces” to Florida for spring break.

General
Complete name               : Dirty.Grandpa.2016.TS.XviD-STANDARD.avi
Format                      : AVI
Format/Info                 : Audio Video Interleave
File size                   : 1.03 GiB
Duration                    : 1h 35mn
Overall bit rate            : 1 548 Kbps

Video
ID                          : 0
Format                      : MPEG-4 Visual
Format profile              : Advanced [email protected]
Format settings, BVOP       : 2
Format settings, QPel       : No
Format settings, GMC        : No warppoints
Format settings, Matrix     : Default (H.263)
Muxing mode                 : Packed bitstream
Codec ID                    : XVID
Codec ID/Hint               : XviD
Duration                    : 1h 35mn
Bit rate                    : 1 348 Kbps
Width                       : 720 pixels
Height                      : 274 pixels
Display aspect ratio        : 2.628
Frame rate                  : 30.000 fps
Color space                 : YUV
Chroma subsampling          : 4:2:0
Bit depth                   : 8 bits
Scan type                   : Progressive
Compression mode            : Lossy
Bits/(Pixel*Frame)          : 0.228
Stream size                 : 922 MiB (87%)
Writing library             : XviD 64

Audio
ID                          : 1
Format                      : MPEG Audio
Format version              : Version 1
Format profile              : Layer 3
Mode                        : Joint stereo
Mode extension              : MS Stereo
Codec ID                    : 55
Codec ID/Hint               : MP3
Duration                    : 1h 35mn
Bit rate mode               : Constant
Bit rate                    : 192 Kbps
Channel(s)                  : 2 channels
Sampling rate               : 48.0 KHz
Compression mode            : Lossy
Stream size                 : 131 MiB (12%)
Alignment                   : Aligned on interleaves
Interleave, duration        : 133 ms (4.00 video frames)
Interleave, preload duratio : 216 ms
Title                       : Exclusive
Writing library             : LAME3.99r
Encoding settings           : -m j -V 4 -q 2 -lowpass 18.6 -b 192

Click To Resize
Click To Resize
Click To Resize
Click To Resize
Click To Resize
Click To Resize
*
*
*
*
*
No links available
No downloads available

Genres

Related movies

Watch Dragon ball super