Remember Me
A password will be e-mailed to you.
Please enter your username or email address. You will receive a link to create a new password via email.
Cancel
PerfectHDMovies.me

Dirty Grandpa 2016 TS x264-Garmin 1.2 GB

Dirty Grandpa    

R 102 min HollywoodHollywood Pre-Releases (Latest)

N/A
IMDB: N/A/10 N/A votes

, , ,

N/A

USA

Report error

Click To Resize

Complete name                            : Dirty.Grandpa.2016.TS.x264-Garmin
Format                                   : Matroska
Format version                           : Version 4 / Version 2
File size                                : 1.22 GiB
Duration                                 : 1h 35mn
Overall bit rate                         : 1 831 Kbps

Video
ID                                       : 1
Format                                   : AVC
Format/Info                              : Advanced Video Codec
Format profile                           : [email protected]
Format settings, CABAC                   : Yes
Format settings, ReFrames                : 4 frames
Codec ID                                 : V_MPEG4/ISO/AVC
Duration                                 : 1h 35mn
Bit rate                                 : 1 602 Kbps
Width                                    : 720 pixels
Height                                   : 304 pixels
Display aspect ratio                     : 2.35:1
Frame rate mode                          : Constant
Frame rate                               : 30.000 fps
Color space                              : YUV
Chroma subsampling                       : 4:2:0
Bit depth                                : 8 bits
Scan type                                : Progressive
Bits/(Pixel*Frame)                       : 0.244
Stream size                              : 1.07 GiB (88%)
Writing library                          : x264 core 148 r2638 7599210
Encoding settings                        : cabac=1 / ref=5 / deblock=1:-1:-1 / analyse=0x3:0x133 / me=hex / subme=9 / psy=1 / psy_rd=1.00:0.80 / mixed_ref=1 / me_range=16 / chroma_me=1 / trellis=1 / 8x8dct=1 / cqm=0 / deadzone=21,11 / fast_pskip=1 / chroma_qp_offset=-4 / threads=9 / lookahead_threads=1 / sliced_threads=0 / nr=0 / decimate=1 / interlaced=0 / bluray_compat=0 / constrained_intra=0 / bframes=3 / b_pyramid=1 / b_adapt=2 / b_bias=0 / direct=1 / weightb=1 / open_gop=0 / weightp=2 / keyint=300 / keyint_min=30 / scenecut=50 / intra_refresh=0 / rc_lookahead=50 / rc=crf / mbtree=1 / crf=18.0 / qcomp=0.60 / qpmin=0 / qpmax=69 / qpstep=4 / ip_ratio=1.40 / aq=1:1.50
Language                                 : English
Default                                  : Yes
Forced                                   : Yes

Audio
ID                                       : 2
Format                                   : MPEG Audio
Format version                           : Version 1
Format profile                           : Layer 3
Mode                                     : Joint stereo
Mode extension                           : MS Stereo
Codec ID                                 : A_MPEG/L3
Codec ID/Hint                            : MP3
Duration                                 : 1h 35mn
Bit rate mode                            : Constant
Bit rate                                 : 192 Kbps
Channel(s)                               : 2 channels
Sampling rate                            : 48.0 KHz
Compression mode                         : Lossy
Stream size                              : 131 MiB (10%)
Writing library                          : LAME3.99r
Encoding settings                        : -m j -V 4 -q 2 -lowpass 18.6 -b 192
Language                                 : English
Default                                  : Yes
Forced                                   : Yes
Source Video                             : Dirty.Grandpa.2016.D.CAMRip.1400MB
Source Audio                             : Dirty.Grandpa.2016.TS.XviD-STANDARD
Genre                                    : Comedy
Release Date                             : 22 January 2016 (USA)
Sample Included                          : Yes
Imdb                                     : http://www.imdb.com/title/tt1860213/

So here is our version of Dirty Grandpa. Weve had this done for about a week now awaiting english audio.
This is the Russian print. It was not bad but not great, fixed pixelation, and flicker completely fixed.
Colors gama brightness and sharpness. We want to thank STANDARD for the audio. As always check sample
as screens always look better. On a side note you have to see this movie is one of the funniest we
have seen in a long time.

Click To Resize
Click To Resize
Click To Resize
Click To Resize
Click To Resize
Click To Resize
Click To Resize
Click To Resize
*
*
*
*
*
No links available
No downloads available

Genres

Related movies

Watch Dragon ball super