Remember Me
A password will be e-mailed to you.
Please enter your username or email address. You will receive a link to create a new password via email.
Cancel
PerfectHDMovies.me

Dilwale (2015) – 720p – WebHD-Rip – Hindi – x264 – AC3 – 5.1 – Mafiaking – M2Tv 1.27 GB

Dilwale    

N/A 158 min BollywoodBollywood HDRip 720p

5.7
IMDB: 5.7/10 15,335 votes

, , ,

N/A

India

Report error

Video
ID : 1
Format : AVC
Format/Info : Advanced Video Codec
Format profile : [email protected]
Format settings, CABAC : Yes
Format settings, ReFrames : 4 frames
Codec ID : V_MPEG4/ISO/AVC
Duration : 2h 33mn
Bit rate : 950 Kbps
Width : 1 280 pixels
Height : 536 pixels
Display aspect ratio : 2.40:1
Frame rate mode : Constant
Frame rate : 24.000 fps
Color space : YUV
Chroma subsampling : 4:2:0
Bit depth : 8 bits
Scan type : Progressive
Bits/(Pixel*Frame) : 0.058
Stream size : 1 019 MiB (79%)
Title : Mafiaking
Language : Hindi
Default : Yes
Forced : No


Audio
ID : 2
Format : AC-3
Format/Info : Audio Coding 3
Mode extension : CM (complete main)
Format settings, Endianness : Big
Codec ID : A_AC3
Duration : 2h 33mn
Bit rate mode : Constant
Bit rate : 224 Kbps
Channel(s) : 6 channels
Channel positions : Front: L C R, Side: L R, LFE
Sampling rate : 48.0 KHz
Compression mode : Lossy
Stream size : 246 MiB (19%)
Title : Mafiaking
Language : Hindi
Default : Yes
Forced : No



1e9847.th.png

265423.th.png

30886a.th.png

49b488.th.png

5fb6e4.th.png

6a96c7.th.png

7.th.png

8.th.png

9.th.png

10.th.png
USERSCLOUD
*
USERFILES
*

 

No links available
No downloads available

Genres

Related movies

Watch Dragon ball super