Remember Me
A password will be e-mailed to you.
Please enter your username or email address. You will receive a link to create a new password via email.
Cancel
PerfectHDMovies.me

Dilwale (2015) – 720p – BluRay – Hindi – x264 – AC3 – 5.1 – Mafiaking – M2Tv ~1.27 GB

BollywoodBollywood Blu-Ray 720p

IMDB: /10 votes

Report error

20160201060258!Dilwale

Ratings: 5.5/10
Genere: Action, Comedy, Crime
General
Unique ID : 228636303370037453706647652778430403789 (0xAC01C013E2CF725890EFAD152C0B94CD)
Complete name : Dilwale (2015) - 720p - BluRay - Hindi - x264 - AC3 - 5.1 - Mafiaking - M2Tv.mkv
Format : Matroska
Format version : Version 4 / Version 2
File size : 1.26 GiB
Duration : 2h 33mn
Overall bit rate : 1 176 Kbps
Movie name : Dilwale (2015) - 720p - BluRay - Hindi - x264 - AC3 - 5.1 - Mafiaking - M2Tv
Encoded date : UTC 2016-03-12 17:23:21
Writing application : mkvmerge v7.9.0 ('Birds') 64bit
Writing library : libebml v1.3.1 + libmatroska v1.4.2
Video
ID : 1
Format : AVC
Format/Info : Advanced Video Codec
Format profile : [email protected]
Format settings, CABAC : Yes
Format settings, ReFrames : 4 frames
Codec ID : V_MPEG4/ISO/AVC
Duration : 2h 33mn
Bit rate : 950 Kbps
Width : 1 280 pixels
Height : 536 pixels
Display aspect ratio : 2.40:1
Frame rate mode : Constant
Frame rate : 24.000 fps
Color space : YUV
Chroma subsampling : 4:2:0
Bit depth : 8 bits
Scan type : Progressive
Bits/(Pixel*Frame) : 0.058
Stream size : 1 020 MiB (79%)
Title : Mafiaking
Language : Hindi
Default : Yes
Forced : No
Audio
ID : 2
Format : AC-3
Format/Info : Audio Coding 3
Mode extension : CM (complete main)
Format settings, Endianness : Big
Codec ID : A_AC3
Duration : 2h 33mn
Bit rate mode : Constant
Bit rate : 224 Kbps
Channel(s) : 6 channels
Channel positions : Front: L C R, Side: L R, LFE
Sampling rate : 48.0 KHz
Compression mode : Lossy
Stream size : 246 MiB (19%)
Title : Mafiaking
Language : Hindi
Default : Yes
Forced : No
105af4.png 4f4351.png 5eda75.png 2a0fe1.png 37bfed.png 7.png Special Thanks Team DDR For Source.

 

 

 

 

 

 

 

 

 

 

 

 
No links available
No downloads available

Genres

Related movies

Watch Dragon ball super