Remember Me
A password will be e-mailed to you.
Please enter your username or email address. You will receive a link to create a new password via email.
Cancel
PerfectHDMovies.me

Dilwale 1994 HDTV Rip 720p X264 AAC [Hon3yHD] ~ 1.18 GB

Dilwale    

N/A 172 min BollywoodBollywood HDRip 720p

5.9
IMDB: 5.9/10 899 votes

, , ,

N/A

India

Report error

 Dilwale 1994 HDTV Rip 720p X264 AAC [Hon3yHD]  - PerfectHDMovies

Dilwale 1994 HDTV Rip 720p X264 AAC [Hon3yHD]

Source : Filereal 1080p Hon3yHD Thanks 
Format : Matroska
Format version : Version 2
File size : 1.18 GiB
Duration : 2h 44mn
Overall bit rate : 1 027 Kbps

Video
ID : 1
Format : AVC
Format/Info : Advanced Video Codec
Format profile : [email protected]
Format settings, CABAC : Yes
Format settings, ReFrames : 4 frames
Codec ID : V_MPEG4/ISO/AVC
Duration : 2h 44mn
Bit rate : 866 Kbps
Width : 1 280 pixels
Height : 544 pixels
Display aspect ratio : 2.35:1
Frame rate mode : Constant
Frame rate : 25.000 fps
Color space : YUV
Chroma subsampling : 4:2:0
Bit depth : 8 bits
Scan type : Progressive
Bits/(Pixel*Frame) : 0.050
Stream size : 1 016 MiB (84%)

Audio
ID : 2
Format : AAC
Format/Info : Advanced Audio Codec
Format profile : LC
Codec ID : A_AAC
Duration : 2h 44mn
Bit rate : 161 Kbps
Channel(s) : 2 channels
Channel positions : Front: L R
Sampling rate : 48.0 KHz
Frame rate : 46.875 fps (1024 spf)
Compression mode : Lossy
Stream size : 189 MiB (16%)
Language : English
Default : Yes
Forced : No
VODLOCKER
USERSCLOUD
*
*
*
*
 

 

No links available
No downloads available

Genres

Related movies

Watch Dragon ball super