Remember Me
A password will be e-mailed to you.
Please enter your username or email address. You will receive a link to create a new password via email.
Cancel
PerfectHDMovies.me

Dil Ki Baazi (1993) WEB-HD Untouched 1080p Hon3yHD~2.63 GB

Dil Ki Baazi    

N/A N/A BollywoodBollywood WEB-DL 1080p

5.5
IMDB: 5.5/10 214 votes

, , ,

N/A

India

Report error

Dil Ki Baazi (1993) WEB-HD Untouched 1080p Hon3yHD

Dil Ki Baazi (1993) WEB-HD Untouched 1080p Hon3yHD~2.63 GB

Info
Format : MPEG-4
Format profile : Base Media
Codec ID : isom (isom/iso2/avc1/mp41)
File size : 2.63 GiB
Duration : 2h 42mn
Overall bit rate mode : Variable
Overall bit rate : 2 322 Kbps
Encoded date : UTC 2016-04-03 09:09:01
Tagged date : UTC 2016-04-03 09:09:01

Video
ID : 1
Format : AVC
Format/Info : Advanced Video Codec
Format profile : [email protected]
Format settings, CABAC : Yes
Format settings, ReFrames : 3 frames
Codec ID : avc1
Codec ID/Info : Advanced Video Coding
Duration : 2h 42mn
Bit rate : 2 193 Kbps
Width : 1 920 pixels
Height : 1 080 pixels
Display aspect ratio : 16:9
Frame rate mode : Constant
Frame rate : 25.000 fps
Color space : YUV
Chroma subsampling : 4:2:0
Bit depth : 8 bits
Scan type : Progressive
Bits/(Pixel*Frame) : 0.042
Stream size : 2.48 GiB (94%)
Encoded date : UTC 2016-04-03 09:09:01
Tagged date : UTC 2016-04-03 09:09:01
Color range : Limited
Color primaries : BT.709
Transfer characteristics : BT.709
Matrix coefficients : BT.709

Audio
ID : 2
Format : AAC
Format/Info : Advanced Audio Codec
Format profile : LC
Codec ID : 40
Duration : 2h 42mn
Bit rate mode : Variable
Bit rate : 126 Kbps
Channel(s) : 2 channels
Channel positions : Front: L R
Sampling rate : 44.1 KHz
Frame rate : 43.066 fps (1024 spf)
Compression mode : Lossy
Stream size : 146 MiB (5%)
Default : Yes

http://extraimago.com/images/2016/05/02/DKB6.th.png
http://extraimago.com/images/2016/05/02/DKB7.th.png
http://extraimago.com/images/2016/05/02/DKB2.th.png
*
VODLOCKER
USERSCLOUD
*
*
*
*
*
No links available
No downloads available

Genres

Related movies

Watch Dragon ball super