Remember Me
A password will be e-mailed to you.
Please enter your username or email address. You will receive a link to create a new password via email.
Cancel
PerfectHDMovies.me

Dictator (2016) 720p HDTVRip x264 [Dual Audio] [Hindi 2.0 + Telugu 5.1] – Hon3y 2.2 GB

Dictator    

N/A 155 min South DubbedSouth Dubbed HDRip 720p

4.7
IMDB: 4.7/10 383 votes

, , ,

N/A

India

Report error

Dictator (2016) 720p HDTVRip x264 [Dual Audio] [Hindi 2.0 + Telugu 5.1] - Hon3y

Dictator (2016) 720p HDTVRip x264 [Dual Audio] [Hindi 2.0 + Telugu 5.1] – Hon3y

Dictator (2016) 720p HDTVRip x264 [Dual Audio] [Hindi 2.0 + Telugu 5.1] - Hon3y

Source : 1080p HDTV [Thanks]
Hindi Audio : ShaniKhan [Thanks]

Format : Matroska
Format version : Version 4 / Version 2
File size : 2.18 GiB
Duration : 2h 26mn
Overall bit rate : 2 135 Kbps

Video
ID : 1
Format : AVC
Format/Info : Advanced Video Codec
Format profile : [email protected]
Format settings, CABAC : Yes
Format settings, ReFrames : 12 frames
Codec ID : V_MPEG4/ISO/AVC
Duration : 2h 26mn
Bit rate : 1 749 Kbps
Width : 1 280 pixels
Height : 536 pixels
Display aspect ratio : 2.40:1
Frame rate mode : Constant
Frame rate : 23.976 (24000/1001) fps
Color space : YUV
Chroma subsampling : 4:2:0
Bit depth : 8 bits
Scan type : Progressive
Bits/(Pixel*Frame) : 0.106
Stream size : 1.79 GiB (82%)
Title : [email protected] | Rana Aqib | Hon3yHD.Com
Writing library : x264 core 146 r2538 121396c

Audio #1
ID : 2
Format : AAC
Format/Info : Advanced Audio Codec
Format profile : LC
Codec ID : A_AAC
Duration : 2h 26mn
Bit rate : 192 Kbps
Channel(s) : 2 channels
Channel positions : Front: L R
Sampling rate : 48.0 KHz
Frame rate : 46.875 fps (1024 spf)
Compression mode : Lossy
Delay relative to video : 9ms
Stream size : 201 MiB (9%)
Title : [email protected] | Rana Aqib | Hon3yHD.Com
Language : Hindi
Default : Yes
Forced : No

Audio #2
ID : 3
Format : AAC
Format/Info : Advanced Audio Codec
Format profile : LC
Codec ID : A_AAC
Duration : 2h 26mn
Bit rate : 192 Kbps
Channel(s) : 6 channels
Channel positions : Front: L C R, Side: L R, LFE
Sampling rate : 48.0 KHz
Frame rate : 46.875 fps (1024 spf)
Compression mode : Lossy
Delay relative to video : 9ms
Stream size : 200 MiB (9%)
Title : [email protected] | Rana Aqib | Hon3yHD.Com
Language : Telugu
Default : No
Forced : No

Dictator (2016) 720p HDTVRip x264 [Dual Audio] [Hindi 2.0 + Telugu 5.1] - Hon3yDictator (2016) 720p HDTVRip x264 [Dual Audio] [Hindi 2.0 + Telugu 5.1] - Hon3yDictator (2016) 720p HDTVRip x264 [Dual Audio] [Hindi 2.0 + Telugu 5.1] - Hon3y

LETWATACH
*
*
*
USERFILES
*
*
*
*
GO4UP

No links available
No downloads available

Genres

Related movies

Watch Dragon ball super