Remember Me
A password will be e-mailed to you.
Please enter your username or email address. You will receive a link to create a new password via email.
Cancel
PerfectHDMovies.me

Dhobi Ghat 2010 Hindi 480p BluRay PerfectHDMovies – 306 MB

Mumbai Diaries    

N/A 100 min BollywoodBollywood 300MB Movies

7.2
IMDB: 7.2/10 8,962 votes

, , ,

1 win.

India

Report error

 

mv5bmtq0ndizmze3of5bml5banbnxkftztcwmduxnzazna-_v1_ux182_cr00182268_al_

Dhobi Ghat 2010 Hindi 480p BluRay PerfectHDMovies

General
Unique ID : 233940660580513370072015946023759809783 (0xAFFF55146070FBFBADF7D1B812288CF7)
Format : Matroska
Format version : Version 4 / Version 2
File size : 306 MiB
Duration : 1 h 42 min
Overall bit rate : 418 kb/s

Video
ID : 1
Format : AVC
Format/Info : Advanced Video Codec
Format profile : [email protected]
Format settings, CABAC : Yes
Format settings, ReFrames : 4 frames
Codec ID : V_MPEG4/ISO/AVC
Duration : 1 h 42 min
Bit rate : 385 kb/s
Width : 720 pixels
Height : 402 pixels
Display aspect ratio : 16:9
Frame rate mode : Constant
Frame rate : 23.976 (24000/1001) FPS
Color space : YUV
Chroma subsampling : 4:2:0
Bit depth : 8 bits
Scan type : Progressive
Bits/(Pixel*Frame) : 0.055
Stream size : 282 MiB (92%)
Writing library : x264 core 142 r2479 dd79a61
Default : Yes
Forced : No
Color range : Limited

Audio
ID : 2
Format : AAC
Format/Info : Advanced Audio Codec
Format profile : HE-AAC / LC
Codec ID : A_AAC
Duration : 1 h 42 min
Bit rate : 32.0 kb/s
Channel(s) : 2 channels
Channel positions : Front: L R
Sampling rate : 22.05 kHz / 11.025 kHz
Frame rate : 10.767 FPS (1024 spf)
Compression mode : Lossy
Delay relative to video : -229 ms
Stream size : 23.4 MiB (8%)
Title : PHDM
Language : Hindi
Default : Yes
Forced : No

Text
ID : 3
Format : UTF-8
Codec ID : S_TEXT/UTF8
Codec ID/Info : UTF-8 Plain Text
Duration : 1 s 0 ms
Bit rate : 1 192 b/s
Count of elements : 1
Stream size : 149 Bytes (0%)
Default : Yes
Forced : No

Menu
00:00:00.000 : :Chapter 1
00:04:04.327 : :Chapter 2
00:12:40.843 : :Chapter 3
00:19:04.226 : :Chapter 4
00:20:58.924 : :Chapter 5
00:24:52.866 : :Chapter 6
00:30:43.466 : :Chapter 7
00:37:04.847 : :Chapter 8
00:42:04.230 : :Chapter 9
00:47:32.558 : :Chapter 10
00:54:40.235 : :Chapter 11
00:59:49.586 : :Chapter 12
01:04:08.469 : :Chapter 13
01:06:11.551 : :Chapter 14
01:13:57.099 : :Chapter 15
01:17:38.070 : :Chapter 16
01:22:16.723 : :Chapter 17
01:28:03.820 : :Chapter 18
01:30:23.584 : :Chapter 19
01:32:28.960 : :Chapter 20
01:37:21.085 : :Chapter 21
No links available
No downloads available

Genres

Related movies

Watch Dragon ball super