Remember Me
A password will be e-mailed to you.
Please enter your username or email address. You will receive a link to create a new password via email.
Cancel
PerfectHDMovies.me

Dhaai Akshar Prem Ke (2000) Untouched WEBHD 1080p [Hon3yHD] 3.3 Gb

Dhaai Akshar Prem Ke    

N/A 167 min BollywoodBollywood WEB-DL 1080p

3.8
IMDB: 3.8/10 992 votes

, , ,

N/A

India

Report error

Dhaai Akshar Prem Ke (2000) Untouched WEBHD 1080p [Hon3yHD]

Dhaai Akshar Prem Ke (2000) Untouched WEBHD 1080p [Hon3yHD]

Dhaai Akshar Prem Ke (2000) Untouched WEBHD 1080p [Hon3yHD]]

https://extraimago.com/images/2016/05/21/007iNFO.png

Format : MPEG-4
Format profile : Base Media
Codec ID : isom
File size : 3.30 GiB
Duration : 2h 36mn
Overall bit rate : 3 014 Kbps
Writing application : Lavf54.63.104

https://extraimago.com/images/2016/05/21/007video.png
Video
ID : 1
Format : AVC
Format/Info : Advanced Video Codec
Format profile : [email protected]
Format settings, CABAC : Yes
Format settings, ReFrames : 2 frames
Codec ID : avc1
Codec ID/Info : Advanced Video Coding
Duration : 2h 36mn
Bit rate : 2 882 Kbps
Width : 1 920 pixels
Height : 1 080 pixels
Display aspect ratio : 16:9
Frame rate mode : Constant
Frame rate : 25.000 fps
Color space : YUV
Chroma subsampling : 4:2:0
Bit depth : 8 bits
Scan type : Progressive
Bits/(Pixel*Frame) : 0.056
Stream size : 3.16 GiB (96%)
Color primaries : BT.709
Transfer characteristics : BT.709
Matrix coefficients : BT.709

https://extraimago.com/images/2016/05/21/007aUDIO.png
Audio
ID : 2
Format : AAC
Format/Info : Advanced Audio Codec
Format profile : LC
Codec ID : 40
Duration : 2h 36mn
Bit rate mode : Constant
Bit rate : 126 Kbps
Channel count : 2 channels
Channel positions : Front: L R
Sampling rate : 44.1 KHz
Compression mode : Lossy
Stream size : 141 MiB (4%)

https://extraimago.com/images/2016/05/21/007sHOTS.png

Dhaai Akshar Prem Ke (2000) Untouched WEBHD 1080p [Hon3yHD]

Dhaai Akshar Prem Ke (2000) Untouched WEBHD 1080p [Hon3yHD]Dhaai Akshar Prem Ke (2000) Untouched WEBHD 1080p [Hon3yHD]

LETWATACH
*
*
*
*
*
*
*
GO4UP 
No links available
No downloads available

Genres

Related movies

Watch Dragon ball super