Remember Me
A password will be e-mailed to you.
Please enter your username or email address. You will receive a link to create a new password via email.
Cancel
PerfectHDMovies.me

Devil (2010) 1080p BDRip Dual Audio Org Hindi 2.0+Eng 5.1 -~{DOOMSDAY}~ 2.05 GB

Devil    

PG-13 80 min Dual AudioDual Audio Blu-Ray 1080p

6.3
IMDB: 6.3/10 105,033 votes

, , ,

2 nominations.

USA

Report error

Devil (2010) 1080p BDRip Dual Audio Org Hindi 2.0+Eng 5.1 -~{DOOMSDAY}~ 2.05 GB-_v1_ux182_cr00182268_al_

Devil (2010) 1080p BDRip Dual Audio Org Hindi 2.0+Eng 5.1 -~{DOOMSDAY}~ 2.05 GB

Complete name               : Devil.(2010).[email protected]}~-.mkv
Format                      : Matroska
Format version              : Version 4 / Version 2
File size                   : 2.00 GiB
Duration                    : 1 h 17 min
Overall bit rate mode       : Variable
Overall bit rate            : 3 708 kb/s
Movie name                  : Devil.(2010).[email protected]}~-

Video
ID                          : 1
Format                      : AVC
Format/Info                 : Advanced Video Codec
Format profile              : [email protected]
Format settings, CABAC      : Yes
Format settings, ReFrames   : 5 frames
Codec ID                    : V_MPEG4/ISO/AVC
Duration                    : 1 h 17 min
Bit rate mode               : Variable
Bit rate                    : 3 000 kb/s
Maximum bit rate            : 62.5 Mb/s
Width                       : 1 920 pixels
Height                      : 800 pixels
Display aspect ratio        : 2.40:1
Frame rate mode             : Constant
Frame rate                  : 25.000 FPS
Original frame rate         : 23.976 (24000/1001) FPS
Color space                 : YUV
Chroma subsampling          : 4:2:0
Bit depth                   : 8 bits
Scan type                   : Progressive
Bits/(Pixel*Frame)          : 0.078
Stream size                 : 1.69 GiB (84%)
Title                       : Devil.(2010).[email protected]}~-
Language                    : English
Default                     : Yes
Forced                      : No

Audio #1
ID                          : 2
Format                      : AC-3
Format/Info                 : Audio Coding 3
Mode extension              : CM (complete main)
Format settings, Endianness : Big
Codec ID                    : A_AC3
Duration                    : 1 h 17 min
Bit rate mode               : Constant
Bit rate                    : 384 kb/s
Channel(s)                  : 6 channels
Channel positions           : Front: L C R, Side: L R, LFE
Sampling rate               : 48.0 kHz
Frame rate                  : 31.250 FPS (1536 spf)
Compression mode            : Lossy
Stream size                 : 212 MiB (10%)
Title                       : ~L3GEND ~Org Dolby Digital 5.1 @384kbps~
Language                    : English
Default                     : No
Forced                      : No

Audio #2
ID                          : 3
Format                      : AC-3
Format/Info                 : Audio Coding 3
Mode extension              : CM (complete main)
Format settings, Endianness : Big
Codec ID                    : A_AC3
Duration                    : 1 h 17 min
Bit rate mode               : Constant
Bit rate                    : 192 kb/s
Channel(s)                  : 2 channels
Channel positions           : Front: L R
Sampling rate               : 48.0 kHz
Frame rate                  : 31.250 FPS (1536 spf)
Compression mode            : Lossy
Stream size                 : 108 MiB (5%)
Title                       : ~L3GEND ~Org Dolby Digital 2.0 @192kbps~
Language                    : Hindi
Default                     : Yes
Forced                      : No

ss

Devil (2010) 1080p BDRip Dual Audio Org Hindi 2.0+Eng 5.1 -~{DOOMSDAY}~ 2.05 GBDevil (2010) 1080p BDRip Dual Audio Org Hindi 2.0+Eng 5.1 -~{DOOMSDAY}~ 2.05 GBDevil (2010) 1080p BDRip Dual Audio Org Hindi 2.0+Eng 5.1 -~{DOOMSDAY}~ 2.05 GB

wo

*
*
FLASHSX
*
LETWATCH
dl
*
*
*
INDISHARE
*
BDUPLOD
*
*
*
No links available
No downloads available

Genres

Related movies

Watch Dragon ball super