Deewana (1992) – Untouched WEBHD 720p x264 AVC 2CH – [ M2Tv ]

Director
Ripper:TuHiN @ M2Tv
Format : MPEG-4
Format profile : Base Media / Version 2
Codec ID : mp42
File size : 2.05 GiB
Duration : 2h 42mn
Overall bit rate mode : Variable
Overall bit rate : 1 806 Kbps

[ Video ]
Format : AVC
Format/Info : Advanced Video Codec
Format profile : [email protected]
Format settings, CABAC : Yes
Format settings, ReFrames : 1 frame
Format settings, GOP : M=1, N=30
Codec ID : avc1
Codec ID/Info : Advanced Video Coding
Duration : 2h 42mn
Bit rate : 1 651 Kbps
Maximum bit rate : 5 538 Kbps
Width : 1 280 pixels
Height : 720 pixels
Display aspect ratio : 16:9
Frame rate mode : Variable
Frame rate : 23.976 fps
Minimum frame rate : 23.762 fps
Maximum frame rate : 24.341 fps
Color space : YUV
Chroma subsampling : 4:2:0
Bit depth : 8 bits
Scan type : Progressive
Bits/(Pixel*Frame) : 0.075
Stream size : 1.87 GiB (91%)

[ Audio ]
Format: AAC
Format/Info : Advanced Audio Codec
Format profile : LC
Codec ID : 40
Duration : 2h 42mn
Bit rate mode : Variable
Bit rate : 152 Kbps
Maximum bit rate : 188 Kbps
Channel(s) : 2 channels
Channel positions : Front: L R
Sampling rate : 44.1 KHz
Compression mode : Lossy
Stream size : 177 MiB (8%) 

Advertising

 

Dec 20, 2015 - Posted by Nouman -

Comments are closed.