Remember Me
A password will be e-mailed to you.
Please enter your username or email address. You will receive a link to create a new password via email.
Cancel
PerfectHDMovies.me

Death Race 2 (2010) BDRip 1080p Dual Audio [ Hindi ORG DD 2.0 -Eng 5.1] Tariq Qureshi – 2.97 GB

Death Race 2    

R 96 min Dual AudioDual Audio Blu-Ray 1080p

5.7
IMDB: 5.7/10 22,834 votes

, , ,

N/A

South Africa, Germany

Report error

27MfOKP.png
:RELEASE TITLE:
Death Race 2 (2010) BDRip 1080p Dual Audio [ Hindi ORG DD 2.0 -Eng 5.1] Tariq Qureshi.mkv
============================================================================
uTF9faF.jpg
:GENERAL INFO:
Format : Matroska
Format : Matroska
Format version : Version 4 / Version 2
File size : 2.92 GiB
Duration : 1h 40mn
Overall bit rate : 4 171 Kbps
Frontend And Writing Library : libebml v1.3.0 + libmatroska v1.4.1
Movie name :Death Race 2 (2010) BDRip 1080p Dual Audio [ Hindi ORG DD 2.0 -Eng 5.1] Tariq Qureshi.mkv

============================================================================

:VIDEO INFO:
ID : 1
Format : AVC
Format/Info : Advanced Video Codec
Format profile : [email protected]
Format settings, CABAC : Yes
Format settings, ReFrames : 4 frames
Codec ID : V_MPEG4/ISO/AVC
Duration : 1h 40mn
Bit rate : 3 500 Kbps
Width : 1 920 pixels
Height : 1 080 pixels
Display aspect ratio : 16:9
Frame rate mode : Constant
Frame rate : 23.976 fps
Stream size : 2.39 GiB (82%)
Writing library : x264 core 138 r2358 9e941d1
Language : English
Default : Yes
Forced : No

============================================================================

:AUDIO 1:
ID : 2
Format : AC-3
Format/Info : Audio Coding 3
Mode extension : CM (complete main)
Format settings, Endianness : Big
Codec ID : A_AC3
Duration : 1h 40mn
Bit rate mode : Constant
Bit rate : 224 Kbps
Channel(s) : 2 channels
Channel positions : Front: L R
Sampling rate : 48.0 KHz
Bit depth : 16 bits
Compression mode : Lossy
Stream size : 161 MiB (5%)
Title : ORG DVD DD2.0 Tariq Qureshi
Language : Hindi
Default : Yes
Forced : No


============================================================================

:AUDIO 2:
ID : 3
Format : AC-3
Format/Info : Audio Coding 3
Mode extension : CM (complete main)
Format settings, Endianness : Big
Codec ID : A_AC3
Duration : 1h 40mn
Bit rate mode : Constant
Bit rate : 448 Kbps
Channel(s) : 6 channels
Channel positions : Front: L C R, Side: L R, LFE
Sampling rate : 48.0 KHz
Bit depth : 16 bits
Compression mode : Lossy
Stream size : 321 MiB (11%)
Title : 5.1 DD Tariq Qureshi
Language : English
Default : No
Forced : No


============================================================================

:SUBTITLE:
Text
ID : 4
Format : UTF-8
Codec ID : S_TEXT/UTF8
Codec ID/Info : UTF-8 Plain Text
Title : Tariq Qureshi
Language : English
Default : No
Forced : No
9a1jy3O.jpg twx90vj.jpg
qtRb5HH.jpg HavtJrm.jpg
669YZYr.jpg Z4ubc0W.jpg
vkdE8fm.jpg a5xqjod.jpg
2X3GWMM.jpg 7LSHdtO.jpg
Cgc3VTZ.jpg z4MWVWy.jpg
wpVgVeX.jpg gZd7KTB.jpg
p36tvSw.jpg A3pq7T8.jpg
============================================================================
VERY BIG THANKS TO ~HIREN~ FOR ORG DVD DD HINDI AUDIO
*
*
*
*
*
*
GO4UP 
 

 

No links available
No downloads available

Genres

Related movies

Watch Dragon ball super