Remember Me
A password will be e-mailed to you.
Please enter your username or email address. You will receive a link to create a new password via email.
Cancel
PerfectHDMovies.me

Deadpool 2016 WEB-DL XviD MP3-RBG 1.4GB

Deadpool    

R 108 min HollywoodHollywood WEB-DL 720p

8.3
IMDB: 8.3/10 326,605 votes

, , , , , , , , , , , , , , ,

2 wins & 6 nominations.

USA, Canada

Report error

Deadpool 2016 WEB-DL XviD MP3-RBG - PerfectHDMovies

Video
ID                                       : 0
Format                                   : MPEG-4 Visual
Format profile                           : [email protected]
Format settings, BVOP                    : No
Format settings, QPel                    : No
Format settings, GMC                     : No warppoints
Format settings, Matrix                  : Default (H.263)
Codec ID                                 : XVID
Codec ID/Hint                            : XviD
Duration                                 : 1h 48mn
Bit rate                                 : 1 588 Kbps
Width                                    : 720 pixels
Height                                   : 304 pixels
Display aspect ratio                     : 2.40:1
Frame rate                               : 23.976 fps
Color space                              : YUV
Chroma subsampling                       : 4:2:0
Bit depth                                : 8 bits
Scan type                                : Progressive
Compression mode                         : Lossy
Bits/(Pixel*Frame)                       : 0.303
Stream size                              : 1.21 GiB (89%)
Writing library                          : Lavc56.13.100

Audio
ID                                       : 1
Format                                   : MPEG Audio
Format version                           : Version 1
Format profile                           : Layer 3
Mode                                     : Joint stereo
Mode extension                           : MS Stereo
Codec ID                                 : 55
Codec ID/Hint                            : MP3
Duration                                 : 1h 48mn
Bit rate mode                            : Constant
Bit rate                                 : 192 Kbps
Channel(s)                               : 2 channels
Sampling rate                            : 48.0 KHz
Compression mode                         : Lossy
Stream size                              : 148 MiB (11%)
Alignment                                : Aligned on interleaves
Interleave, duration                     : 24 ms (0.58 video frame)
Interleave, preload duration             : 504 ms
Writing library                          : LAME3.99.5
 Click To Resize
Click To Resize
Click To Resize
LETWATACH
*
USERSFILES
*
*
*
*
 

 

Deadpool 2016 WEB-DL XviD MP3-RBG 1.4GB
Deadpool 2016 WEB-DL XviD MP3-RBG 1.4GB
Deadpool 2016 WEB-DL XviD MP3-RBG 1.4GB
Deadpool 2016 WEB-DL XviD MP3-RBG 1.4GB
Deadpool 2016 WEB-DL XviD MP3-RBG 1.4GB
Deadpool 2016 WEB-DL XviD MP3-RBG 1.4GB
Deadpool 2016 WEB-DL XviD MP3-RBG 1.4GB
Deadpool 2016 WEB-DL XviD MP3-RBG 1.4GB
Deadpool 2016 WEB-DL XviD MP3-RBG 1.4GB
Deadpool 2016 WEB-DL XviD MP3-RBG 1.4GB
Deadpool 2016 WEB-DL XviD MP3-RBG 1.4GB
Deadpool 2016 WEB-DL XviD MP3-RBG 1.4GB
Deadpool 2016 WEB-DL XviD MP3-RBG 1.4GB
Deadpool 2016 WEB-DL XviD MP3-RBG 1.4GB
Deadpool 2016 WEB-DL XviD MP3-RBG 1.4GB
Deadpool 2016 WEB-DL XviD MP3-RBG 1.4GB
Deadpool 2016 WEB-DL XviD MP3-RBG 1.4GB
Deadpool 2016 WEB-DL XviD MP3-RBG 1.4GB
Deadpool 2016 WEB-DL XviD MP3-RBG 1.4GB
Deadpool 2016 WEB-DL XviD MP3-RBG 1.4GB
Deadpool 2016 WEB-DL XviD MP3-RBG 1.4GB
Deadpool 2016 WEB-DL XviD MP3-RBG 1.4GB
Deadpool 2016 WEB-DL XviD MP3-RBG 1.4GB
Deadpool 2016 WEB-DL XviD MP3-RBG 1.4GB
Deadpool 2016 WEB-DL XviD MP3-RBG 1.4GB
Deadpool 2016 WEB-DL XviD MP3-RBG 1.4GB
Deadpool 2016 WEB-DL XviD MP3-RBG 1.4GB
Deadpool 2016 WEB-DL XviD MP3-RBG 1.4GB
Deadpool 2016 WEB-DL XviD MP3-RBG 1.4GB
No links available
No downloads available

Genres

Related movies

Watch Dragon ball super