Remember Me
A password will be e-mailed to you.
Please enter your username or email address. You will receive a link to create a new password via email.
Cancel
PerfectHDMovies.me

Deadpool (2016) [1080p] [Dual Audio] [Hindi 5.1+English DTS] [Dzrg Torrents] 5Gb

R Dual AudioDual Audio Blu-Ray 1080p

8.2
IMDB: 8.2/10 votes

USA

Report error

Deadpool (2016) [1080p] [Dual Audio] [Hindi 5.1+English DTS] [Dzrg Torrents]
Deadpool (2016) [1080p] [Dual Audio] [Hindi 5.1+English DTS] [Dzrg Torrents] 5Gb

 

Format : Matroska
Format version : Version 4 / Version 2
File size : 4.99 GiB
Duration : 1h 48mn
Overall bit rate : 6 615 Kbps
Encoded date : UTC 2016-05-14 16:34:32
Writing application : mkvmerge v9.1.0 ('Little Earthquakes') 32bit
Writing library : libebml v1.3.3 + libmatroska v1.4.4



Video
ID : 1
Format : AVC
Format/Info : Advanced Video Codec
Format profile : [email protected]
Format settings, CABAC : Yes
Format settings, ReFrames : 5 frames
Codec ID : V_MPEG4/ISO/AVC
Duration : 1h 48mn
Bit rate : 4 645 Kbps
Width : 1 920 pixels
Height : 808 pixels
Display aspect ratio : 2.40:1
Frame rate mode : Constant
Frame rate : 23.976 (24000/1001) fps
Color space : YUV
Chroma subsampling : 4:2:0
Bit depth : 8 bits
Scan type : Progressive
Bits/(Pixel*Frame) : 0.125
Stream size : 3.51 GiB (70%)


Audio #1
ID : 2
Format : AC-3
Format/Info : Audio Coding 3
Mode extension : CM (complete main)
Format settings, Endianness : Big
Codec ID : A_AC3
Duration : 1h 48mn
Bit rate mode : Constant
Bit rate : 448 Kbps
Channel(s) : 6 channels
Channel positions : Front: L C R, Side: L R, LFE
Sampling rate : 48.0 KHz
Frame rate : 31.250 fps (1536 spf)
Compression mode : Lossy
Stream size : 346 MiB (7%)
Title : Dzrg Torrents
Language : Hindi
Default : Yes
Forced : No


Audio #2
ID : 3
Format : DTS
Format/Info : Digital Theater Systems
Mode : 16
Format settings, Endianness : Big
Codec ID : A_DTS
Duration : 1h 48mn
Bit rate mode : Constant
Bit rate : 1 509 Kbps
Channel(s) : 6 channels
Channel positions : Front: L C R, Side: L R, LFE
Sampling rate : 48.0 KHz
Frame rate : 93.750 fps (512 spf)
Bit depth : 16 bits
Compression mode : Lossy
Stream size : 1.14 GiB (23%)
Title : Dzrg Torrents
Language : English
Default : No
Forced : No

Text #1
ID : 4
Format : PGS
Muxing mode : zlib
Codec ID : S_HDMV/PGS
Codec ID/Info : Picture based subtitle format used on BDs/HD-DVDs
Duration : 1h 47mn
Bit rate : 10.3 Kbps
Count of elements : 2848
Stream size : 7.93 MiB (0%)
Title : Dzrg Torrents
Language : Hindi
Default : Yes
Forced : No

Text #2
ID : 5
Format : UTF-8
Codec ID : S_TEXT/UTF8
Codec ID/Info : UTF-8 Plain Text
Duration : 1h 47mn
Bit rate : 64 bps
Count of elements : 1851
Stream size : 51.0 KiB (0%)
Title : Dzrg Torrents
Language : English
Default : No
Forced : No
 Deadpool (2016) [1080p] [Dual Audio] [Hindi 5.1+English DTS] [Dzrg Torrents]

*
VODLOCKER
*
*
*
*
JHEBERG
*
GO4UP 
 

 

No links available
No downloads available

Genres

Related movies

Watch Dragon ball super