Remember Me
A password will be e-mailed to you.
Please enter your username or email address. You will receive a link to create a new password via email.
Cancel
PerfectHDMovies.me

Dead in Tombstone 2013 720p BRRIp Hindi Audio Only – Lesnar 745 MB

Dead in Tombstone    

R 100 min Dual AudioDual Audio Blu-Ray 720p

4.8
IMDB: 4.8/10 3,862 votes

, , ,

N/A

USA

Report error

Dead in Tombstone 2013 720p BRRIp Hindi Audio Only - Lesnar

Dead in Tombstone 2013 720p BRRIp Hindi Audio Only – Lesnar

Format : Matroska
Format version : Version 4 / Version 2
File size : 747 MiB
Duration : 1 h 39 min
Overall bit rate : 1 046 kb/s
Encoded date : UTC 2016-08-14 04:08:09
Writing application : mkvmerge v9.3.1 ('Mask Machine') 32bit
Writing library : libebml v1.3.4 + libmatroska v1.4.5

Video
ID : 1
Format : AVC
Format/Info : Advanced Video Codec
Format profile : [email protected]
Format settings, CABAC : Yes
Format settings, ReFrames : 4 frames
Codec ID : V_MPEG4/ISO/AVC
Duration : 1 h 39 min
Bit rate : 933 kb/s
Width : 1 280 pixels
Height : 720 pixels
Display aspect ratio : 16:9
Frame rate mode : Constant
Frame rate : 23.976 FPS
Color space : YUV
Chroma subsampling : 4:2:0
Bit depth : 8 bits
Scan type : Progressive
Bits/(Pixel*Frame) : 0.042
Stream size : 667 MiB (89%)
Title : Lesnar
Writing library : x264 core 138
Encoding settings : cabac=1 / ref=2 / deblock=1:0:0 / analyse=0x3:0x113 / me=hex / subme=4 / psy=1 / psy_rd=1.00:0.00 / mixed_ref=0 / me_range=16 / chroma_me=1 / trellis=1 / 8x8dct=1 / cqm=0 / deadzone=21,11 / fast_pskip=1 / chroma_qp_offset=0 / threads=18 / lookahead_threads=4 / sliced_threads=0 / nr=0 / decimate=1 / interlaced=0 / bluray_compat=0 / constrained_intra=0 / bframes=3 / b_pyramid=2 / b_adapt=1 / b_bias=0 / direct=1 / weightb=1 / open_gop=0 / weightp=1 / keyint=250 / keyint_min=23 / scenecut=40 / intra_refresh=0 / rc_lookahead=20 / rc=crf / mbtree=1 / crf=26.0 / qcomp=0.60 / qpmin=0 / qpmax=69 / qpstep=4 / vbv_maxrate=1200 / vbv_bufsize=4000 / crf_max=0.0 / nal_hrd=none / ip_ratio=1.40 / aq=1:1.00
Default : Yes
Forced : No

Audio
ID : 2
Format : AAC
Format/Info : Advanced Audio Codec
Format profile : LC
Codec ID : A_AAC
Duration : 1 h 39 min
Bit rate : 111 kb/s
Channel(s) : 2 channels
Channel positions : Front: L R
Sampling rate : 44.1 kHz
Frame rate : 43.066 FPS (1024 spf)
Compression mode : Lossy
Delay relative to video : -46 ms
Stream size : 79.0 MiB (11%)
Title : Lesnar
Language : Hindi
Default : Yes
Forced : No

 

Dead in Tombstone 2013 720p BRRIp Hindi Audio Only - Lesnar Dead in Tombstone 2013 720p BRRIp Hindi Audio Only - Lesnar Dead in Tombstone 2013 720p BRRIp Hindi Audio Only - Lesnar
LETWATACH
*
*
*
*
*
*
*
GO4UP

No links available
No downloads available

Genres

Related movies

Watch Dragon ball super