Criminal 2016 1080p BDRip x264 AC3 2 0 – HB007 3.3GB

Criminal 2016 1080p BDRip x264 AC3 2 0 – HB007 3.3GB
Director

Criminal 2016 1080p BDRip x264 AC3 2 0 - HB007 3.3GB

Criminal 2016 1080p BDRip x264 AC3 2 0 – HB007 3.3GB

General
Format                                   : Matroska
Format version                           : Version 4 / Version 2
File size                                : 3.30 GiB
Duration                                 : 1h 53mn
Overall bit rate                         : 4 159 Kbps


Video
ID                                       : 1
Format                                   : AVC
Format/Info                              : Advanced Video Codec
Format profile                           : [email protected]
Format settings, CABAC                   : Yes
Format settings, ReFrames                : 5 frames
Codec ID                                 : V_MPEG4/ISO/AVC
Duration                                 : 1h 53mn
Bit rate                                 : 3 959 Kbps
Width                                    : 1 912 pixels
Height                                   : 800 pixels
Display aspect ratio                     : 2.40:1
Frame rate mode                          : Constant
Frame rate                               : 23.976 fps
Color space                              : YUV
Chroma subsampling                       : 4:2:0
Bit depth                                : 8 bits
Scan type                                : Progressive
Bits/(Pixel*Frame)                       : 0.108
Stream size                              : 3.06 GiB (93%)
Default                                  : Yes
Forced                                   : No
Color range                              : Limited
Color primaries                          : Generic film
Transfer characteristics                 : BT.709
Matrix coefficients                      : BT.709

Audio
ID                                       : 2
Format                                   : AC-3
Format/Info                              : Audio Coding 3
Format profile                           : Dolby Digital
Mode extension                           : CM (complete main)
Format settings, Endianness              : Big
Codec ID                                 : A_AC3
Duration                                 : 1h 53mn
Bit rate mode                            : Constant
Bit rate                                 : 224 Kbps
Channel(s)                               : 2 channels
Channel positions                        : Front: L R
Sampling rate                            : 48.0 KHz
Bit depth                                : 16 bits
Compression mode                         : Lossy
Stream size                              : 182 MiB (5%)
Default                                  : Yes
Forced                                   : No

   
Criminal 2016 1080p BDRip x264 AC3 2 0 - HB007 3.3GBCriminal 2016 1080p BDRip x264 AC3 2 0 - HB007 3.3GBCriminal 2016 1080p BDRip x264 AC3 2 0 - HB007 3.3GB

Advertising

*
*
*
*
*
 

 

Jul 18, 2016 - Posted by Jasleev -

Comments are closed.