Remember Me
A password will be e-mailed to you.
Please enter your username or email address. You will receive a link to create a new password via email.
Cancel
PerfectHDMovies.me

Corridors 2014 1080p WebHD Hon3yHD 1.47 GB

BollywoodBollywood HDRip 1080p

IMDB: /10 votes

Report error

General
Complete name : Corridors – 2014 – 1080p – WebHD – Hon3yHD.mp4
Format : MPEG-4
Format profile : Base Media
Codec ID : isom
File size : 1.47 GiB
Duration : 1h 36mn
Overall bit rate mode : Variable
Overall bit rate : 2 192 Kbps
Encoded date : UTC 2015-10-30 12:25:49
Tagged date : UTC 2015-10-30 12:25:49
Video
ID : 1
Format : AVC
Format/Info : Advanced Video Codec
Format profile : [email protected]
Format settings, CABAC : Yes
Format settings, ReFrames : 3 frames
Codec ID : avc1
Codec ID/Info : Advanced Video Coding
Duration : 1h 36mn
Bit rate : 2 063 Kbps
Width : 1 920 pixels
Height : 1 080 pixels
Display aspect ratio : 16:9
Frame rate mode : Constant
Frame rate : 25.000 fps
Color space : YUV
Chroma subsampling : 4:2:0
Bit depth : 8 bits
Scan type : Progressive
Bits/(Pixel*Frame) : 0.040
Stream size : 1.39 GiB (94%)Audio
ID : 2
Format : AAC
Format/Info : Advanced Audio Codec
Format profile : LC
Codec ID : 40
Duration : 1h 36mn
Bit rate mode : Variable
Bit rate : 126 Kbps
Channel(s) : 2 channels
Channel positions : Front: L R
Sampling rate : 44.1 KHz
Compression mode : Lossy
Stream size : 86.4 MiB (6%)

 

No links available
No downloads available

Genres

Related movies

Watch Dragon ball super