Remember Me
A password will be e-mailed to you.
Please enter your username or email address. You will receive a link to create a new password via email.
Cancel
PerfectHDMovies.me
Blu-ray 1080p Chinese Zodiac (2012) 1080p BluRay x264 [Dual Audio] [Hindi DD 2.0 – English] – monu987 [Exclusive] ~ 3.39 GB
Report error

Chinese Zodiac (2012) 1080p BluRay x264 [Dual Audio] [Hindi DD 2.0 – English] – monu987 [Exclusive] ~ 3.39 GB

Chinese Zodiac    

PG-13 109 min Dual AudioDual Audio Blu-Ray 1080p

6.2
IMDB: 6.2/10 14,686 votes

, , ,

4 wins & 7 nominations.

Hong Kong, China

Report error


Chinese Zodiac (2012) 1080p BluRay x264 [Dual Audio] [Hindi DD 2.0 – English] – monu987 [Exclusive]
Chinese Zodiac (2012) 1080p BluRay x264 [Dual Audio] [Hindi DD 2.0 – English] – monu987 [Exclusive]
Format : Matroska
Format version : Version 4 / Version 2
File size : 3.34 GiB
Duration : 2h 3mn
Overall bit rate : 3 881 Kbps




Video
ID : 1
Format : AVC
Format/Info : Advanced Video Codec
Format profile : [email protected]
Format settings, CABAC : Yes
Format settings, ReFrames : 5 frames
Codec ID : V_MPEG4/ISO/AVC
Duration : 2h 3mn
Bit rate : 3 500 Kbps
Width : 1 920 pixels
Height : 800 pixels
Display aspect ratio : 2.40:1
Frame rate mode : Constant
Frame rate : 23.976 fps
Color space : YUV
Chroma subsampling : 4:2:0
Bit depth : 8 bits
Scan type : Progressive
Bits/(Pixel*Frame) : 0.095
Stream size : 2.94 GiB (88%)
Title : monu987
Writing library : x264 core 142 r2431 ac76440
Color range : Limited
Color primaries : Generic film
Transfer characteristics : BT.709
Matrix coefficients : BT.709


Audio #1
ID : 2
Format : AC-3
Format/Info : Audio Coding 3
Format profile : Dolby Digital
Mode extension : CM (complete main)
Format settings, Endianness : Big
Codec ID : A_AC3
Duration : 2h 3mn
Bit rate mode : Constant
Bit rate : 192 Kbps
Channel(s) : 2 channels
Channel positions : Front: L R
Sampling rate : 48.0 KHz
Bit depth : 16 bits
Compression mode : Lossy
Stream size : 169 MiB (5%)
Title : monu987
Language : Hindi
Default : Yes
Forced : Yes


Audio #2
ID : 3
Format : AC-3
Format/Info : Audio Coding 3
Mode extension : CM (complete main)
Format settings, Endianness : Big
Codec ID : A_AC3
Duration : 2h 3mn
Bit rate mode : Constant
Bit rate : 192 Kbps
Channel(s) : 6 channels
Channel positions : Front: L C R, Side: L R, LFE
Sampling rate : 48.0 KHz
Bit depth : 16 bits
Compression mode : Lossy
Stream size : 169 MiB (5%)
Title : monu987
Language : English
Default : No
Forced : No


Special Thanks To David Call Bro For Hindi Audio
Which Was Perfect Synced by Me…………ENjoY The Most Awaited Jackie Chan Movie


Note: No Watermarks/Tags in Audio & Video …. Enjoy Movie:)


041b727.md.png 09fb24f.md.png
0702bf0.md.png 03212cc.md.png
05d3757.md.png 114d37a.md.png
06c89d9.md.png 14.md.png
12.md.png 015a69c.md.png
026b63d.md.png 08e517b.md.png
100c1bf.md.png 13.md.png



Special Thanks To – TMX, Invincible,Sadhu’s-HD,Sher-Khan,sbaz44,TBI,DrStar,Dredd,David,Shawn-James, Abu-HamzaRespect To All Teams – HDDR,Gpsoft,IcTv,SDR,HKRG,TEAM warriors,TeamTNT,M2TV,Hon3y,Team-Exd,XMR,TMRG,PerfectHDMovies and other past-present teamsAlso Thanks To All Hollywood Hindi Dubbed Movie Lovers For There Appreciation (y)
USERSCLOUD
*
USERFILES
*
JHEBERG
*
GO4UP

 

No links available
No downloads available

Genres

Related movies

Watch Dragon ball super