Remember Me
A password will be e-mailed to you.
Please enter your username or email address. You will receive a link to create a new password via email.
Cancel
PerfectHDMovies.me

Chhoti.Si.Baat(1975).2Cd.MKV.AC3{Kamdev} 1.2 GB

Chhoti Si Baat    

N/A 123 min BollywoodBollywood DVDRip 720p

8.3
IMDB: 8.3/10 2,492 votes

, , ,

N/A

India

Report error

General
 
 Source : DVD9
 
 Complete name : Chhoti Si Baat.mkv
 Format : Matroska
 Format version : Version 4 / Version 2
 Codec ID : isom (isom/iso2/avc1/mp41)
 File size : 1.21 GiB
 Duration : 1h 58mn
 Overall bit rate : 1 458 Kbps
 Movie name : Chhoti Si Baat
 Director : Basu Chatterjee
 Actor : Amol Palekar / Vidya Sinha / Ashok Kumar / Asrani / C S Dubey
 Producer : B. R. Chopra / Ripped By Kamdev
 Genre : Comedy
 ContentType : Short Film
 
 Recorded date : 1975-02-14
 Tagged date : UTC 2015-01-30 02:35:14
 Writing application : Lavf55.12.100
 HDVideo : Yes
 ContentRating : mpaa|NR|000|
 
 Video
 
 ID : 1
 Format : AVC
 Format/Info : Advanced Video Codec
 Format profile : [email protected]
 Format settings, CABAC : Yes
 Format settings, ReFrames : 16 frames
 Codec ID : avc1
 Codec ID/Info : Advanced Video Coding
 Duration : 1h 58mn
 Bit rate : 1 068 Kbps
 Width : 720 pixels
 Height : 480 pixels
 Display aspect ratio : 4:3
 Original display aspect ratio : 4:3
 Frame rate mode : Variable
 Frame rate : 25.227 fps
 Minimum frame rate : 17.120 fps
 Maximum frame rate : 90 000.000 fps
 Color space : YUV
 Chroma subsampling : 4:2:0
 Bit depth : 8 bits
 Scan type : Progressive
 Bits/(Pixel*Frame) : 0.122
 Stream size : 906 MiB (73%)
 Writing library : x264 core 142 r2479 dd79a61
 Color range : Limited
 Color primaries : BT.601 NTSC
 Transfer characteristics : BT.709
 Matrix coefficients : BT.601
 
 Audio
 
 ID : 2
 Format : AC-3
 Format/Info : Audio Coding 3
 Mode extension : CM (complete main)
 Format settings, Endianness : Big
 Codec ID : ac-3
 Duration : 1h 58mn
 Bit rate mode : Constant
 Bit rate : 384 Kbps
 Channel(s) : 6 channels
 Channel positions : Front: L C R, Side: L R, LFE
 Sampling rate : 48.0 KHz
 Frame rate : 31.250 fps (1536 spf)
 Bit depth : 16 bits
 Compression mode : Lossy
 Stream size : 326 MiB (26%)
 Title : Surround
 Language : Hindi
 Default : Yes
 Alternate group : 1
LETWATACH
*
USERSCLOUD
*
*
*
*
JHEBERG
*
No links available
No downloads available

Genres

Related movies

Watch Dragon ball super