Remember Me
A password will be e-mailed to you.
Please enter your username or email address. You will receive a link to create a new password via email.
Cancel
PerfectHDMovies.me

Chauranga (2014) 720p Webrip x264 AC3 5.1 ESub -DDR 1.34GB

Chauranga    

N/A 88 min BollywoodBollywood WEB-DL 720p

8.2
IMDB: 8.2/10 20 votes

, , ,

2 wins.

India

Report error

Chauranga (2014) 720p Webrip x264 AC3 5.1 ESub -DDR

Chauranga (2014) 720p Webrip x264 AC3 5.1 ESub -DDR 1.34GB

Specs:
Source: Netflix Rip@ DDR

Format : Matroska
File size : 1.34 GiB
Duration : 1 h 26 min
Overall bit rate : 2 222 kb/s

Video
ID : 1
Format : AVC
Format/Info : Advanced Video Codec
Format profile : [email protected]
Format settings, CABAC : Yes
Format settings, ReFrames : 12 frames
Codec ID : V_MPEG4/ISO/AVC
Duration : 1 h 26 min
Bit rate : 1 581 kb/s
Width : 1 280 pixels
Height : 544 pixels
Display aspect ratio : 2.35:1
Frame rate mode : Constant
Frame rate : 24.000 FPS
Color space : YUV
Chroma subsampling : 4:2:0
Bit depth : 8 bits
Scan type : Progressive
Bits/(Pixel*Frame) : 0.095
Stream size : 973 MiB (71%)
Language : English
Default : Yes
Forced : No
Color range : Limited
Color primaries : BT.709
Transfer characteristics : BT.709
Matrix coefficients : BT.709

Audio
ID : 2
Format : AC-3
Format/Info : Audio Coding 3
Mode extension : CM (complete main)
Format settings, Endianness : Big
Codec ID : A_AC3
Duration : 1 h 26 min
Bit rate mode : Constant
Bit rate : 640 kb/s
Channel(s) : 6 channels
Channel positions : Front: L C R, Side: L R, LFE
Sampling rate : 48.0 kHz
Frame rate : 31.250 FPS (1536 spf)
Compression mode : Lossy
Delay relative to video : 30 ms
Stream size : 394 MiB (29%)
Language : Hindi
Default : Yes
Forced : No

Text
ID : 3
Format : UTF-8
Codec ID : S_TEXT/UTF8
Codec ID/Info : UTF-8 Plain Text
Duration : 1 h 18 min
Bit rate : 21 b/s
Count of elements : 517
Stream size : 12.3 KiB (0%)
Language : English
Default : Yes
Forced : No
*
*
*
*
*
 

 

No links available
No downloads available

Genres

Related movies

Watch Dragon ball super