Remember Me
A password will be e-mailed to you.
Please enter your username or email address. You will receive a link to create a new password via email.
Cancel
PerfectHDMovies.me

Charlies Angels – Full Throttle (2003) 720p BRRip HEVC x265 [Dual-Audio][English 5.1+Hindi 5.1] [PKG] 1.10 GB

Charlie's Angels: Full Throttle    

PG-13 106 min Dual AudioDual Audio Blu-Ray 720pHEVC

4.8
IMDB: 4.8/10 96,870 votes

, , ,

8 wins & 14 nominations.

USA

Report error

Video
ID : 1
Format : HEVC
Format/Info : High Efficiency Video Coding
Codec ID : V_MPEGH/ISO/HEVC
Duration : 1h 47mn
Bit rate : 1 048 Kbps
Width : 1 280 pixels
Height : 536 pixels
Display aspect ratio : 2.40:1
Frame rate mode : Constant
Frame rate : 23.976 fps
Bits/(Pixel*Frame) : 0.064
Stream size : 803 MiB (72%)
Default : Yes
Forced : No
 
Audio #1
ID : 2
Format : AC-3
Format/Info : Audio Coding 3
Mode extension : CM (complete main)
Format settings, Endianness : Big
Codec ID : A_AC3
Duration : 1h 47mn
Bit rate mode : Constant
Bit rate : 192 Kbps
Channel(s) : 6 channels
Channel positions : Front: L C R, Side: L R, LFE
Sampling rate : 48.0 KHz
Bit depth : 16 bits
Compression mode : Lossy
Stream size : 147 MiB (13%)
Language : Hindi
Default : Yes
Forced : No
 
Audio #2
ID : 3
Format : AC-3
Format/Info : Audio Coding 3
Mode extension : CM (complete main)
Format settings, Endianness : Big
Codec ID : A_AC3
Duration : 1h 47mn
Bit rate mode : Constant
Bit rate : 192 Kbps
Channel(s) : 6 channels
Channel positions : Front: L C R, Side: L R, LFE
Sampling rate : 48.0 KHz
Bit depth : 16 bits
Compression mode : Lossy
Stream size : 147 MiB (13%)
Language : English
Default : No
Forced : No
Charlie_s_Angels_Full_Throttle_720p_BRRip_HEVC.jpg
USERSCLOUD
*
USERFILES
*

 

No links available
No downloads available

Genres

Related movies

Watch Dragon ball super